Featured TV Shows


The Loudest Voice S01E06

Posted By: Tavaz
1080p (FullHD) / WEB-DL IMDb
The Loudest Voice S01E06

The Loudest Voice S01E06
WEB-DL | MKV | 1920x1080 | English | H264 @ 9999 kbps | E-AC-3 @ 256 kbps | 46 min 46 s | 3.28 GiB
Subtitles: English
Genre: Drama


The rise and fall of Fox News founder Roger Ailes, focusing primarily on the past decade in which Ailes arguably became the Republican Party’s de facto leader, while flashing back to defining events in his life.

9be18873bf884915958ea3c4ead2c124.mkv (3.3 GB)



General
Unique ID : 45088282263864712922025364057172578415 (0x21EBAFF295A36D37414F23B204FD906F)
Complete name : ./9be18873bf884915958ea3c4ead2c124.mkv
Format : Matroska
Format version : Version 4 / Version 2
File size : 3.28 GiB
Duration : 46 min 46 s
Overall bit rate : 10.0 Mb/s
Encoded date : UTC 2019-08-05 00:47:15
Writing application : mkvmerge v35.0.0 ('All The Love In The World') 64-bit
Writing library : libebml v1.3.9 + libmatroska v1.5.2

Video
ID : 1
Format : AVC
Format/Info : Advanced Video Codec
Format profile : High@L4
Format settings : CABAC / 4 Ref Frames
Format settings, CABAC : Yes
Format settings, RefFrames : 4 frames
Codec ID : V_MPEG4/ISO/AVC
Duration : 46 min 46 s
Bit rate mode : Constant
Bit rate : 10 000 kb/s
Width : 1 920 pixels
Height : 1 080 pixels
Display aspect ratio : 16:9
Frame rate mode : Constant
Frame rate : 23.976 (24000/1001) FPS
Color space : YUV
Chroma subsampling : 4:2:0
Bit depth : 8 bits
Scan type : Progressive
Bits/(Pixel*Frame) : 0.201
Stream size : 3.20 GiB (97%)
Language : English
Default : Yes
Forced : No
Color range : Limited
Color primaries : BT.709
Transfer characteristics : BT.709
Matrix coefficients : BT.709

Audio
ID : 2
Format : E-AC-3
Format/Info : Enhanced Audio Coding 3
Format settings, Endianness : Big
Codec ID : A_EAC3
Duration : 46 min 46 s
Bit rate mode : Constant
Bit rate : 256 kb/s
Channel(s) : 6 channels
Channel positions : Front: L C R, Side: L R, LFE
Sampling rate : 48.0 kHz
Frame rate : 187.500 FPS (256 SPF)
Compression mode : Lossy
Stream size : 85.7 MiB (3%)
Language : English
Service kind : Complete Main
Default : Yes
Forced : No

Text
ID : 3
Format : UTF-8
Codec ID : S_TEXT/UTF8
Codec ID/Info : UTF-8 Plain Text
Duration : 45 min 7 s
Bit rate : 95 b/s
Count of elements : 1054
Stream size : 31.6 KiB (0%)
Title : SDH
Language : English
Default : No
Forced : No





The Loudest Voice S01E06


The Loudest Voice S01E06


The Loudest Voice S01E06


The Loudest Voice S01E06


The Loudest Voice S01E06

All episodes