Index
# A B C D E F G H I J K L M N O P Q R S T U V W Y Z
Tags
Language
Tags

Featured TV Shows


Zenimation S01E06

Posted By: MegoNecia
1080p (FullHD) / WEBRip IMDb
Zenimation S01E06

Zenimation S01E06
WEBRip | MKV | 1920x1080 | English | H264 @ 8480 kbps | E-AC-3 @ 256 kbps | 4 min 10 s | 261 MiB
Subtitles: Français, Deutsch, Suomi, Español, Polski, Italiano, Nederlands, Svenska, Dansk, English, Português
Genre: Animation, Family


Unplug, relax, and refresh your senses for a moment of mindfulness with Walt Disney Animation Studios’ Zenimation - an animated soundscape experience.

c6f3be39f81446e0a697dec73072dc5b.mkv (261.0 MB)



General
Unique ID : 115974466867991034847132090531750394991 (0x573FDEAEA7F7A31DB1425B1E6348BC6F)
Complete name : ./c6f3be39f81446e0a697dec73072dc5b.mkv
Format : Matroska
Format version : Version 4 / Version 2
File size : 261 MiB
Duration : 4 min 10 s
Overall bit rate mode : Variable
Overall bit rate : 8 738 kb/s
Encoded date : UTC 2020-08-01 10:51:25
Writing application : mkvmerge v48.0.0 ('Fortress Around Your Heart') 64-bit
Writing library : libebml v1.4.0 + libmatroska v1.6.0

Video
ID : 1
Format : AVC
Format/Info : Advanced Video Codec
Format profile : High@L4
Format settings : CABAC / 4 Ref Frames
Format settings, CABAC : Yes
Format settings, RefFrames : 4 frames
Codec ID : V_MPEG4/ISO/AVC
Duration : 4 min 10 s
Bit rate mode : Variable
Bit rate : 8 480 kb/s
Maximum bit rate : 12.7 Mb/s
Width : 1 920 pixels
Height : 1 080 pixels
Display aspect ratio : 16:9
Frame rate mode : Constant
Frame rate : 23.976 (24000/1001) FPS
Color space : YUV
Chroma subsampling : 4:2:0
Bit depth : 8 bits
Scan type : Progressive
Bits/(Pixel*Frame) : 0.171
Stream size : 253 MiB (97%)
Language : English
Default : Yes
Forced : No
Color range : Limited
Color primaries : BT.709
Transfer characteristics : BT.709
Matrix coefficients : BT.709

Audio
ID : 2
Format : E-AC-3
Format/Info : Enhanced Audio Coding 3
Format settings, Endianness : Big
Codec ID : A_EAC3
Duration : 4 min 10 s
Bit rate mode : Constant
Bit rate : 256 kb/s
Channel(s) : 6 channels
Channel positions : Front: L C R, Side: L R, LFE
Sampling rate : 48.0 kHz
Frame rate : 187.500 FPS (256 SPF)
Compression mode : Lossy
Stream size : 7.65 MiB (3%)
Language : English
Service kind : Complete Main
Default : Yes
Forced : No

Text #1
ID : 3
Format : UTF-8
Codec ID : S_TEXT/UTF8
Codec ID/Info : UTF-8 Plain Text
Duration : 4 min 4 s
Bit rate : 5 b/s
Count of elements : 5
Stream size : 181 Bytes (0%)
Title : Dansk
Language : Danish
Default : No
Forced : No

Text #2
ID : 4
Format : UTF-8
Codec ID : S_TEXT/UTF8
Codec ID/Info : UTF-8 Plain Text
Duration : 4 min 0 s
Bit rate : 5 b/s
Count of elements : 4
Stream size : 166 Bytes (0%)
Title : Deutsch
Language : German
Default : No
Forced : No

Text #3
ID : 5
Format : UTF-8
Codec ID : S_TEXT/UTF8
Codec ID/Info : UTF-8 Plain Text
Duration : 3 min 58 s
Bit rate : 33 b/s
Count of elements : 51
Stream size : 990 Bytes (0%)
Title : English (SDH)
Language : English
Default : No
Forced : No

Text #4
ID : 6
Format : UTF-8
Codec ID : S_TEXT/UTF8
Codec ID/Info : UTF-8 Plain Text
Duration : 4 min 7 s
Bit rate : 7 b/s
Count of elements : 7
Stream size : 247 Bytes (0%)
Title : Español
Language : Spanish
Default : No
Forced : No

Text #5
ID : 7
Format : UTF-8
Codec ID : S_TEXT/UTF8
Codec ID/Info : UTF-8 Plain Text
Duration : 4 min 4 s
Bit rate : 6 b/s
Count of elements : 5
Stream size : 203 Bytes (0%)
Title : Español (Latinoamericano)
Language : Spanish
Default : No
Forced : No

Text #6
ID : 8
Format : UTF-8
Codec ID : S_TEXT/UTF8
Codec ID/Info : UTF-8 Plain Text
Duration : 4 min 7 s
Bit rate : 6 b/s
Count of elements : 6
Stream size : 197 Bytes (0%)
Title : Suomi
Language : Finnish
Default : No
Forced : No

Text #7
ID : 9
Format : UTF-8
Codec ID : S_TEXT/UTF8
Codec ID/Info : UTF-8 Plain Text
Duration : 4 min 4 s
Bit rate : 7 b/s
Count of elements : 5
Stream size : 223 Bytes (0%)
Title : Français
Language : French
Default : No
Forced : No

Text #8
ID : 10
Format : UTF-8
Codec ID : S_TEXT/UTF8
Codec ID/Info : UTF-8 Plain Text
Duration : 4 min 4 s
Bit rate : 5 b/s
Count of elements : 5
Stream size : 176 Bytes (0%)
Title : Italiano
Language : Italian
Default : No
Forced : No

Text #9
ID : 11
Format : UTF-8
Codec ID : S_TEXT/UTF8
Codec ID/Info : UTF-8 Plain Text
Duration : 4 min 4 s
Bit rate : 7 b/s
Count of elements : 4
Stream size : 227 Bytes (0%)
Title : Nederlands
Language : Dutch
Default : No
Forced : No

Text #10
ID : 12
Format : UTF-8
Codec ID : S_TEXT/UTF8
Codec ID/Info : UTF-8 Plain Text
Duration : 4 min 7 s
Bit rate : 7 b/s
Count of elements : 6
Stream size : 238 Bytes (0%)
Title : Norsk
Language : Norwegian
Default : No
Forced : No

Text #11
ID : 13
Format : UTF-8
Codec ID : S_TEXT/UTF8
Codec ID/Info : UTF-8 Plain Text
Duration : 4 min 6 s
Bit rate : 5 b/s
Count of elements : 6
Stream size : 171 Bytes (0%)
Title : Polski
Language : Polish
Default : No
Forced : No

Text #12
ID : 14
Format : UTF-8
Codec ID : S_TEXT/UTF8
Codec ID/Info : UTF-8 Plain Text
Duration : 4 min 7 s
Bit rate : 8 b/s
Count of elements : 7
Stream size : 263 Bytes (0%)
Title : Português
Language : Portuguese
Default : No
Forced : No

Text #13
ID : 15
Format : UTF-8
Codec ID : S_TEXT/UTF8
Codec ID/Info : UTF-8 Plain Text
Duration : 4 min 7 s
Bit rate : 8 b/s
Count of elements : 7
Stream size : 263 Bytes (0%)
Title : Português (Brasil)
Language : Portuguese
Default : No
Forced : No

Text #14
ID : 16
Format : UTF-8
Codec ID : S_TEXT/UTF8
Codec ID/Info : UTF-8 Plain Text
Duration : 4 min 5 s
Bit rate : 6 b/s
Count of elements : 5
Stream size : 187 Bytes (0%)
Title : Svenska
Language : Swedish
Default : No
Forced : No





Zenimation S01E06


Zenimation S01E06


Zenimation S01E06


Zenimation S01E06


Zenimation S01E06

All episodes