Index
# A B C D E F G H I J K L M N O P Q R S T U V W Y Z
Tags
Language
Tags

Featured TV Shows


Zenimation S01E07

Posted By: MegoNecia
720p (HD) / WEBRip IMDb
Zenimation S01E07

Zenimation S01E07
WEBRip | MKV | 1280x720 | English | H264 @ 4237 kbps | E-AC-3 @ 256 kbps | 7 min 33 s | 243 MiB
Subtitles: Français, Deutsch, Suomi, Español, Polski, Italiano, Nederlands, Svenska, Dansk, English, Português
Genre: Animation, Family


Unplug, relax, and refresh your senses for a moment of mindfulness with Walt Disney Animation Studios’ Zenimation - an animated soundscape experience.

e2107f2af4b7418a8e558c344c56e8f6.mkv (243.0 MB)



General
Unique ID : 281615674494040557593279515503007187713 (0xD3DD34BE7E22853C943C8285F2B94301)
Complete name : ./e2107f2af4b7418a8e558c344c56e8f6.mkv
Format : Matroska
Format version : Version 4 / Version 2
File size : 243 MiB
Duration : 7 min 33 s
Overall bit rate mode : Variable
Overall bit rate : 4 496 kb/s
Encoded date : UTC 2020-08-01 10:51:32
Writing application : mkvmerge v48.0.0 ('Fortress Around Your Heart') 64-bit
Writing library : libebml v1.4.0 + libmatroska v1.6.0

Video
ID : 1
Format : AVC
Format/Info : Advanced Video Codec
Format profile : High@L3.1
Format settings : CABAC / 4 Ref Frames
Format settings, CABAC : Yes
Format settings, RefFrames : 4 frames
Codec ID : V_MPEG4/ISO/AVC
Duration : 7 min 33 s
Bit rate mode : Variable
Bit rate : 4 238 kb/s
Maximum bit rate : 6 375 kb/s
Width : 1 280 pixels
Height : 720 pixels
Display aspect ratio : 16:9
Frame rate mode : Constant
Frame rate : 23.976 (24000/1001) FPS
Color space : YUV
Chroma subsampling : 4:2:0
Bit depth : 8 bits
Scan type : Progressive
Bits/(Pixel*Frame) : 0.192
Stream size : 229 MiB (94%)
Language : English
Default : Yes
Forced : No
Color range : Limited
Color primaries : BT.709
Transfer characteristics : BT.709
Matrix coefficients : BT.709

Audio
ID : 2
Format : E-AC-3
Format/Info : Enhanced Audio Coding 3
Format settings, Endianness : Big
Codec ID : A_EAC3
Duration : 7 min 33 s
Bit rate mode : Constant
Bit rate : 256 kb/s
Channel(s) : 6 channels
Channel positions : Front: L C R, Side: L R, LFE
Sampling rate : 48.0 kHz
Frame rate : 187.500 FPS (256 SPF)
Compression mode : Lossy
Stream size : 13.8 MiB (6%)
Language : English
Service kind : Complete Main
Default : Yes
Forced : No

Text #1
ID : 3
Format : UTF-8
Codec ID : S_TEXT/UTF8
Codec ID/Info : UTF-8 Plain Text
Duration : 7 min 26 s
Bit rate : 3 b/s
Count of elements : 5
Stream size : 183 Bytes (0%)
Title : Dansk
Language : Danish
Default : No
Forced : No

Text #2
ID : 4
Format : UTF-8
Codec ID : S_TEXT/UTF8
Codec ID/Info : UTF-8 Plain Text
Duration : 7 min 22 s
Bit rate : 2 b/s
Count of elements : 4
Stream size : 166 Bytes (0%)
Title : Deutsch
Language : German
Default : No
Forced : No

Text #3
ID : 5
Format : UTF-8
Codec ID : S_TEXT/UTF8
Codec ID/Info : UTF-8 Plain Text
Duration : 7 min 21 s
Bit rate : 26 b/s
Count of elements : 73
Stream size : 1.42 KiB (0%)
Title : English (SDH)
Language : English
Default : No
Forced : No

Text #4
ID : 6
Format : UTF-8
Codec ID : S_TEXT/UTF8
Codec ID/Info : UTF-8 Plain Text
Duration : 7 min 30 s
Bit rate : 4 b/s
Count of elements : 7
Stream size : 252 Bytes (0%)
Title : Español
Language : Spanish
Default : No
Forced : No

Text #5
ID : 7
Format : UTF-8
Codec ID : S_TEXT/UTF8
Codec ID/Info : UTF-8 Plain Text
Duration : 7 min 26 s
Bit rate : 3 b/s
Count of elements : 5
Stream size : 208 Bytes (0%)
Title : Español (Latinoamericano)
Language : Spanish
Default : No
Forced : No

Text #6
ID : 8
Format : UTF-8
Codec ID : S_TEXT/UTF8
Codec ID/Info : UTF-8 Plain Text
Duration : 7 min 30 s
Bit rate : 3 b/s
Count of elements : 6
Stream size : 200 Bytes (0%)
Title : Suomi
Language : Finnish
Default : No
Forced : No

Text #7
ID : 9
Format : UTF-8
Codec ID : S_TEXT/UTF8
Codec ID/Info : UTF-8 Plain Text
Duration : 7 min 27 s
Bit rate : 4 b/s
Count of elements : 5
Stream size : 225 Bytes (0%)
Title : Français
Language : French
Default : No
Forced : No

Text #8
ID : 10
Format : UTF-8
Codec ID : S_TEXT/UTF8
Codec ID/Info : UTF-8 Plain Text
Duration : 7 min 26 s
Bit rate : 3 b/s
Count of elements : 5
Stream size : 177 Bytes (0%)
Title : Italiano
Language : Italian
Default : No
Forced : No

Text #9
ID : 11
Format : UTF-8
Codec ID : S_TEXT/UTF8
Codec ID/Info : UTF-8 Plain Text
Duration : 7 min 27 s
Bit rate : 4 b/s
Count of elements : 4
Stream size : 227 Bytes (0%)
Title : Nederlands
Language : Dutch
Default : No
Forced : No

Text #10
ID : 12
Format : UTF-8
Codec ID : S_TEXT/UTF8
Codec ID/Info : UTF-8 Plain Text
Duration : 7 min 30 s
Bit rate : 4 b/s
Count of elements : 6
Stream size : 239 Bytes (0%)
Title : Norsk
Language : Norwegian
Default : No
Forced : No

Text #11
ID : 13
Format : UTF-8
Codec ID : S_TEXT/UTF8
Codec ID/Info : UTF-8 Plain Text
Duration : 7 min 28 s
Bit rate : 3 b/s
Count of elements : 6
Stream size : 174 Bytes (0%)
Title : Polski
Language : Polish
Default : No
Forced : No

Text #12
ID : 14
Format : UTF-8
Codec ID : S_TEXT/UTF8
Codec ID/Info : UTF-8 Plain Text
Duration : 7 min 30 s
Bit rate : 4 b/s
Count of elements : 7
Stream size : 266 Bytes (0%)
Title : Português
Language : Portuguese
Default : No
Forced : No

Text #13
ID : 15
Format : UTF-8
Codec ID : S_TEXT/UTF8
Codec ID/Info : UTF-8 Plain Text
Duration : 7 min 30 s
Bit rate : 4 b/s
Count of elements : 7
Stream size : 266 Bytes (0%)
Title : Português (Brasil)
Language : Portuguese
Default : No
Forced : No

Text #14
ID : 16
Format : UTF-8
Codec ID : S_TEXT/UTF8
Codec ID/Info : UTF-8 Plain Text
Duration : 7 min 27 s
Bit rate : 3 b/s
Count of elements : 5
Stream size : 188 Bytes (0%)
Title : Svenska
Language : Swedish
Default : No
Forced : No





Zenimation S01E07


Zenimation S01E07


Zenimation S01E07


Zenimation S01E07


Zenimation S01E07

All episodes