Index
# A B C D E F G H I J K L M N O P Q R S T U V W Y Z
Tags
Language
Tags

Featured TV Shows


Zenimation S01E08

Posted By: MegoNecia
720p (HD) / WEBRip IMDb
Zenimation S01E08

Zenimation S01E08
WEBRip | MKV | 1280x720 | English | H264 @ 4234 kbps | E-AC-3 @ 256 kbps | 4 min 38 s | 149 MiB
Subtitles: Français, Deutsch, Suomi, Español, Polski, Italiano, Nederlands, Svenska, Dansk, English, Português
Genre: Animation, Family


Unplug, relax, and refresh your senses for a moment of mindfulness with Walt Disney Animation Studios’ Zenimation - an animated soundscape experience.

e936c65b19ac42238ecbb97d2cb541d3.mkv (148.9 MB)



General
Unique ID : 131087003646356741186527431457315675910 (0x629E7045BF2E57719DDA3FDCC872DF06)
Complete name : ./e936c65b19ac42238ecbb97d2cb541d3.mkv
Format : Matroska
Format version : Version 4 / Version 2
File size : 149 MiB
Duration : 4 min 38 s
Overall bit rate mode : Variable
Overall bit rate : 4 493 kb/s
Encoded date : UTC 2020-08-01 10:51:52
Writing application : mkvmerge v48.0.0 ('Fortress Around Your Heart') 64-bit
Writing library : libebml v1.4.0 + libmatroska v1.6.0

Video
ID : 1
Format : AVC
Format/Info : Advanced Video Codec
Format profile : High@L3.1
Format settings : CABAC / 4 Ref Frames
Format settings, CABAC : Yes
Format settings, RefFrames : 4 frames
Codec ID : V_MPEG4/ISO/AVC
Duration : 4 min 38 s
Bit rate mode : Variable
Bit rate : 4 235 kb/s
Maximum bit rate : 6 375 kb/s
Width : 1 280 pixels
Height : 720 pixels
Display aspect ratio : 16:9
Frame rate mode : Constant
Frame rate : 23.976 (24000/1001) FPS
Color space : YUV
Chroma subsampling : 4:2:0
Bit depth : 8 bits
Scan type : Progressive
Bits/(Pixel*Frame) : 0.192
Stream size : 140 MiB (94%)
Language : English
Default : Yes
Forced : No
Color range : Limited
Color primaries : BT.709
Transfer characteristics : BT.709
Matrix coefficients : BT.709

Audio
ID : 2
Format : E-AC-3
Format/Info : Enhanced Audio Coding 3
Format settings, Endianness : Big
Codec ID : A_EAC3
Duration : 4 min 38 s
Bit rate mode : Constant
Bit rate : 256 kb/s
Channel(s) : 6 channels
Channel positions : Front: L C R, Side: L R, LFE
Sampling rate : 48.0 kHz
Frame rate : 187.500 FPS (256 SPF)
Compression mode : Lossy
Stream size : 8.49 MiB (6%)
Language : English
Service kind : Complete Main
Default : Yes
Forced : No

Text #1
ID : 3
Format : UTF-8
Codec ID : S_TEXT/UTF8
Codec ID/Info : UTF-8 Plain Text
Duration : 4 min 31 s
Bit rate : 5 b/s
Count of elements : 5
Stream size : 185 Bytes (0%)
Title : Dansk
Language : Danish
Default : No
Forced : No

Text #2
ID : 4
Format : UTF-8
Codec ID : S_TEXT/UTF8
Codec ID/Info : UTF-8 Plain Text
Duration : 4 min 27 s
Bit rate : 5 b/s
Count of elements : 4
Stream size : 173 Bytes (0%)
Title : Deutsch
Language : German
Default : No
Forced : No

Text #3
ID : 5
Format : UTF-8
Codec ID : S_TEXT/UTF8
Codec ID/Info : UTF-8 Plain Text
Duration : 4 min 26 s
Bit rate : 29 b/s
Count of elements : 45
Stream size : 988 Bytes (0%)
Title : English (SDH)
Language : English
Default : No
Forced : No

Text #4
ID : 6
Format : UTF-8
Codec ID : S_TEXT/UTF8
Codec ID/Info : UTF-8 Plain Text
Duration : 4 min 34 s
Bit rate : 7 b/s
Count of elements : 7
Stream size : 251 Bytes (0%)
Title : Español
Language : Spanish
Default : No
Forced : No

Text #5
ID : 7
Format : UTF-8
Codec ID : S_TEXT/UTF8
Codec ID/Info : UTF-8 Plain Text
Duration : 4 min 31 s
Bit rate : 6 b/s
Count of elements : 5
Stream size : 207 Bytes (0%)
Title : Español (Latinoamericano)
Language : Spanish
Default : No
Forced : No

Text #6
ID : 8
Format : UTF-8
Codec ID : S_TEXT/UTF8
Codec ID/Info : UTF-8 Plain Text
Duration : 4 min 34 s
Bit rate : 5 b/s
Count of elements : 6
Stream size : 199 Bytes (0%)
Title : Suomi
Language : Finnish
Default : No
Forced : No

Text #7
ID : 9
Format : UTF-8
Codec ID : S_TEXT/UTF8
Codec ID/Info : UTF-8 Plain Text
Duration : 4 min 32 s
Bit rate : 6 b/s
Count of elements : 5
Stream size : 230 Bytes (0%)
Title : Français
Language : French
Default : No
Forced : No

Text #8
ID : 10
Format : UTF-8
Codec ID : S_TEXT/UTF8
Codec ID/Info : UTF-8 Plain Text
Duration : 4 min 31 s
Bit rate : 5 b/s
Count of elements : 5
Stream size : 180 Bytes (0%)
Title : Italiano
Language : Italian
Default : No
Forced : No

Text #9
ID : 11
Format : UTF-8
Codec ID : S_TEXT/UTF8
Codec ID/Info : UTF-8 Plain Text
Duration : 4 min 32 s
Bit rate : 6 b/s
Count of elements : 4
Stream size : 227 Bytes (0%)
Title : Nederlands
Language : Dutch
Default : No
Forced : No

Text #10
ID : 12
Format : UTF-8
Codec ID : S_TEXT/UTF8
Codec ID/Info : UTF-8 Plain Text
Duration : 4 min 34 s
Bit rate : 7 b/s
Count of elements : 6
Stream size : 243 Bytes (0%)
Title : Norsk
Language : Norwegian
Default : No
Forced : No

Text #11
ID : 13
Format : UTF-8
Codec ID : S_TEXT/UTF8
Codec ID/Info : UTF-8 Plain Text
Duration : 4 min 33 s
Bit rate : 5 b/s
Count of elements : 6
Stream size : 175 Bytes (0%)
Title : Polski
Language : Polish
Default : No
Forced : No

Text #12
ID : 14
Format : UTF-8
Codec ID : S_TEXT/UTF8
Codec ID/Info : UTF-8 Plain Text
Duration : 4 min 34 s
Bit rate : 7 b/s
Count of elements : 7
Stream size : 268 Bytes (0%)
Title : Português
Language : Portuguese
Default : No
Forced : No

Text #13
ID : 15
Format : UTF-8
Codec ID : S_TEXT/UTF8
Codec ID/Info : UTF-8 Plain Text
Duration : 4 min 34 s
Bit rate : 7 b/s
Count of elements : 7
Stream size : 268 Bytes (0%)
Title : Português (Brasil)
Language : Portuguese
Default : No
Forced : No

Text #14
ID : 16
Format : UTF-8
Codec ID : S_TEXT/UTF8
Codec ID/Info : UTF-8 Plain Text
Duration : 4 min 32 s
Bit rate : 5 b/s
Count of elements : 5
Stream size : 187 Bytes (0%)
Title : Svenska
Language : Swedish
Default : No
Forced : No





Zenimation S01E08


Zenimation S01E08


Zenimation S01E08


Zenimation S01E08


Zenimation S01E08

All episodes