Index
# A B C D E F G H I J K L M N O P Q R S T U V W Y Z
Tags
Language
Tags

Featured TV Shows


Zenimation S01E11

Posted By: MegoNecia
720p (HD) / WEBRip IMDb
Zenimation S01E11

Zenimation S01E11
WEBRip | MKV | 1280x720 | English | H264 @ 4234 kbps | E-AC-3 @ 256 kbps | 49 min 19 s | 1.55 GiB
Subtitles: Français, Deutsch, Suomi, Español, Polski, Italiano, Nederlands, Svenska, Dansk, English, Português
Genre: Animation, Family


Unplug, relax, and refresh your senses for a moment of mindfulness with Walt Disney Animation Studios’ Zenimation - an animated soundscape experience.

819fcd4cdf72aeede6e15205aed9b6da.mkv (1.5 GB)



General
Unique ID : 199587026511099576618824082481178328227 (0x962710267670B8C6FEDD8E2E5EA9BCA3)
Complete name : ./819fcd4cdf72aeede6e15205aed9b6da.mkv
Format : Matroska
Format version : Version 4 / Version 2
File size : 1.55 GiB
Duration : 49 min 19 s
Overall bit rate mode : Variable
Overall bit rate : 4 493 kb/s
Writing application : mkvmerge v51.0.0 ('I Wish') 64-bit
Writing library : libebml v1.4.0 + libmatroska v1.6.2

Video
ID : 1
Format : AVC
Format/Info : Advanced Video Codec
Format profile : High@L3.1
Format settings : CABAC / 4 Ref Frames
Format settings, CABAC : Yes
Format settings, RefFrames : 4 frames
Codec ID : V_MPEG4/ISO/AVC
Duration : 49 min 18 s
Bit rate mode : Variable
Bit rate : 4 235 kb/s
Maximum bit rate : 6 375 kb/s
Width : 1 280 pixels
Height : 720 pixels
Display aspect ratio : 16:9
Frame rate mode : Constant
Frame rate : 23.976 (24000/1001) FPS
Color space : YUV
Chroma subsampling : 4:2:0
Bit depth : 8 bits
Scan type : Progressive
Bits/(Pixel*Frame) : 0.192
Stream size : 1.46 GiB (94%)
Language : English
Default : Yes
Forced : No
Color range : Limited
Color primaries : BT.709
Transfer characteristics : BT.709
Matrix coefficients : BT.709

Audio
ID : 2
Format : E-AC-3
Format/Info : Enhanced Audio Coding 3
Format settings, Endianness : Big
Codec ID : A_EAC3
Duration : 49 min 19 s
Bit rate mode : Constant
Bit rate : 256 kb/s
Channel(s) : 6 channels
Channel positions : Front: L C R, Side: L R, LFE
Sampling rate : 48.0 kHz
Frame rate : 187.500 FPS (256 SPF)
Compression mode : Lossy
Stream size : 90.3 MiB (6%)
Language : English
Service kind : Complete Main
Default : Yes
Forced : No

Text #1
ID : 3
Format : UTF-8
Codec ID : S_TEXT/UTF8
Codec ID/Info : UTF-8 Plain Text
Duration : 49 min 7 s
Bit rate : 23 b/s
Count of elements : 455
Stream size : 8.35 KiB (0%)
Title : English (SDH)
Language : English
Default : No
Forced : No

Text #2
ID : 4
Format : UTF-8
Codec ID : S_TEXT/UTF8
Codec ID/Info : UTF-8 Plain Text
Duration : 49 min 12 s
Bit rate : 0 b/s
Count of elements : 13
Stream size : 243 Bytes (0%)
Title : Dansk
Language : Danish
Default : No
Forced : No

Text #3
ID : 5
Format : UTF-8
Codec ID : S_TEXT/UTF8
Codec ID/Info : UTF-8 Plain Text
Duration : 49 min 8 s
Bit rate : 0 b/s
Count of elements : 12
Stream size : 243 Bytes (0%)
Title : Deutsch
Language : German
Default : No
Forced : No

Text #4
ID : 6
Format : UTF-8
Codec ID : S_TEXT/UTF8
Codec ID/Info : UTF-8 Plain Text
Duration : 49 min 12 s
Bit rate : 0 b/s
Count of elements : 13
Stream size : 288 Bytes (0%)
Title : Español (Latinoamericano)
Language : Spanish
Default : No
Forced : No

Text #5
ID : 7
Format : UTF-8
Codec ID : S_TEXT/UTF8
Codec ID/Info : UTF-8 Plain Text
Duration : 49 min 15 s
Bit rate : 0 b/s
Count of elements : 15
Stream size : 334 Bytes (0%)
Title : Español
Language : Spanish
Default : No
Forced : No

Text #6
ID : 8
Format : UTF-8
Codec ID : S_TEXT/UTF8
Codec ID/Info : UTF-8 Plain Text
Duration : 49 min 15 s
Bit rate : 0 b/s
Count of elements : 14
Stream size : 258 Bytes (0%)
Title : Suomi
Language : Finnish
Default : No
Forced : No

Text #7
ID : 9
Format : UTF-8
Codec ID : S_TEXT/UTF8
Codec ID/Info : UTF-8 Plain Text
Duration : 49 min 12 s
Bit rate : 0 b/s
Count of elements : 13
Stream size : 315 Bytes (0%)
Title : Français
Language : French
Default : No
Forced : No

Text #8
ID : 10
Format : UTF-8
Codec ID : S_TEXT/UTF8
Codec ID/Info : UTF-8 Plain Text
Duration : 49 min 12 s
Bit rate : 0 b/s
Count of elements : 13
Stream size : 248 Bytes (0%)
Title : Italiano
Language : Italian
Default : No
Forced : No

Text #9
ID : 11
Format : UTF-8
Codec ID : S_TEXT/UTF8
Codec ID/Info : UTF-8 Plain Text
Duration : 49 min 13 s
Bit rate : 0 b/s
Count of elements : 4
Stream size : 227 Bytes (0%)
Title : Nederlands
Language : Dutch
Default : No
Forced : No

Text #10
ID : 12
Format : UTF-8
Codec ID : S_TEXT/UTF8
Codec ID/Info : UTF-8 Plain Text
Duration : 49 min 15 s
Bit rate : 0 b/s
Count of elements : 14
Stream size : 302 Bytes (0%)
Title : Norsk
Language : Norwegian
Default : No
Forced : No

Text #11
ID : 13
Format : UTF-8
Codec ID : S_TEXT/UTF8
Codec ID/Info : UTF-8 Plain Text
Duration : 49 min 14 s
Bit rate : 0 b/s
Count of elements : 14
Stream size : 240 Bytes (0%)
Title : Polski
Language : Polish
Default : No
Forced : No

Text #12
ID : 14
Format : UTF-8
Codec ID : S_TEXT/UTF8
Codec ID/Info : UTF-8 Plain Text
Duration : 49 min 15 s
Bit rate : 0 b/s
Count of elements : 14
Stream size : 330 Bytes (0%)
Title : Português (Brasil)
Language : Portuguese
Default : No
Forced : No

Text #13
ID : 15
Format : UTF-8
Codec ID : S_TEXT/UTF8
Codec ID/Info : UTF-8 Plain Text
Duration : 49 min 15 s
Bit rate : 0 b/s
Count of elements : 14
Stream size : 330 Bytes (0%)
Title : Português
Language : Portuguese
Default : No
Forced : No

Text #14
ID : 16
Format : UTF-8
Codec ID : S_TEXT/UTF8
Codec ID/Info : UTF-8 Plain Text
Duration : 49 min 13 s
Bit rate : 0 b/s
Count of elements : 13
Stream size : 247 Bytes (0%)
Title : Svenska
Language : Swedish
Default : No
Forced : No





Zenimation S01E11


Zenimation S01E11


Zenimation S01E11


Zenimation S01E11


Zenimation S01E11

All episodes