Index
# A B C D E F G H I J K L M N O P Q R S T U V W Y Z
Tags
Language
Tags

Featured TV Shows


Zenimation S02E03

Posted By: Tavaz
720p (HD) / WEB-DL IMDb
Zenimation S02E03

Zenimation S02E03
WEB-DL | MKV | 1280x720 | English | H264 @ 2869 kbps | E-AC-3 @ 256 kbps | 6 min 49 s | 153 MiB
Subtitles: English
Genre: Animation, Family


Unplug, relax, and refresh your senses for a moment of mindfulness with Walt Disney Animation Studios’ Zenimation - an animated soundscape experience.

0d4c87358b0743139b073addea7b5382.mkv (152.5 MB)



General
Unique ID : 25969441187405977843453248400761198986 (0x1389884E21824D99711DEF23264E998A)
Complete name : ./0d4c87358b0743139b073addea7b5382.mkv
Format : Matroska
Format version : Version 4 / Version 2
File size : 153 MiB
Duration : 6 min 49 s
Overall bit rate mode : Variable
Overall bit rate : 3 128 kb/s
Encoded date : UTC 2021-06-11 13:12:25
Writing application : mkvmerge v57.0.0 ('Till The End') 64-bit
Writing library : libebml v1.4.2 + libmatroska v1.6.4

Video
ID : 1
Format : AVC
Format/Info : Advanced Video Codec
Format profile : High@L3.1
Format settings : CABAC / 4 Ref Frames
Format settings, CABAC : Yes
Format settings, RefFrames : 4 frames
Codec ID : V_MPEG4/ISO/AVC
Duration : 6 min 49 s
Bit rate mode : Variable
Bit rate : 2 870 kb/s
Maximum bit rate : 6 375 kb/s
Width : 1 280 pixels
Height : 720 pixels
Display aspect ratio : 16:9
Frame rate mode : Constant
Frame rate : 24.000 FPS
Color space : YUV
Chroma subsampling : 4:2:0
Bit depth : 8 bits
Scan type : Progressive
Bits/(Pixel*Frame) : 0.130
Stream size : 140 MiB (92%)
Writing library : AVC Coding
Default : Yes
Forced : No
Color range : Limited
Color primaries : BT.709
Transfer characteristics : BT.709
Matrix coefficients : BT.709

Audio
ID : 2
Format : E-AC-3
Format/Info : Enhanced Audio Coding 3
Format settings, Endianness : Big
Codec ID : A_EAC3
Duration : 6 min 49 s
Bit rate mode : Constant
Bit rate : 256 kb/s
Channel(s) : 6 channels
Channel positions : Front: L C R, Side: L R, LFE
Sampling rate : 48.0 kHz
Frame rate : 187.500 FPS (256 SPF)
Compression mode : Lossy
Stream size : 12.5 MiB (8%)
Language : English
Service kind : Complete Main
Default : Yes
Forced : No

Text
ID : 3
Format : UTF-8
Codec ID : S_TEXT/UTF8
Codec ID/Info : UTF-8 Plain Text
Duration : 6 min 36 s
Bit rate : 11 b/s
Count of elements : 35
Stream size : 571 Bytes (0%)
Language : English
Default : No
Forced : No





Zenimation S02E03


Zenimation S02E03


Zenimation S02E03


Zenimation S02E03


Zenimation S02E03

All episodes