Featured TV Shows


Zenimation S02E04

Posted By: Tavaz
1080p (FullHD) / WEB-DL IMDb
Zenimation S02E04

Zenimation S02E04
WEB-DL | MKV | 1920x1080 | English | H264 @ 7192 kbps | E-AC-3 @ 256 kbps | 6 min 42 s | 358 MiB
Subtitles: English
Genre: Animation, Family


Unplug, relax, and refresh your senses for a moment of mindfulness with Walt Disney Animation Studios’ Zenimation - an animated soundscape experience.

6f25d357266d4ec28d637b46e4d53e6e.mkv (357.9 MB)



General
Unique ID : 250114345399955179309493756068478918551 (0xBC2A454EBC4A770287120EE463F51F97)
Complete name : ./6f25d357266d4ec28d637b46e4d53e6e.mkv
Format : Matroska
Format version : Version 4 / Version 2
File size : 358 MiB
Duration : 6 min 42 s
Overall bit rate mode : Variable
Overall bit rate : 7 450 kb/s
Encoded date : UTC 2021-06-11 12:53:42
Writing application : mkvmerge v57.0.0 ('Till The End') 64-bit
Writing library : libebml v1.4.2 + libmatroska v1.6.4

Video
ID : 1
Format : AVC
Format/Info : Advanced Video Codec
Format profile : High@L4
Format settings : CABAC / 4 Ref Frames
Format settings, CABAC : Yes
Format settings, RefFrames : 4 frames
Codec ID : V_MPEG4/ISO/AVC
Duration : 6 min 42 s
Bit rate mode : Variable
Bit rate : 7 192 kb/s
Maximum bit rate : 12.7 Mb/s
Width : 1 920 pixels
Height : 1 080 pixels
Display aspect ratio : 16:9
Frame rate mode : Constant
Frame rate : 24.000 FPS
Color space : YUV
Chroma subsampling : 4:2:0
Bit depth : 8 bits
Scan type : Progressive
Bits/(Pixel*Frame) : 0.145
Stream size : 345 MiB (97%)
Writing library : AVC Coding
Default : Yes
Forced : No
Color range : Limited
Color primaries : BT.709
Transfer characteristics : BT.709
Matrix coefficients : BT.709

Audio
ID : 2
Format : E-AC-3
Format/Info : Enhanced Audio Coding 3
Format settings, Endianness : Big
Codec ID : A_EAC3
Duration : 6 min 42 s
Bit rate mode : Constant
Bit rate : 256 kb/s
Channel(s) : 6 channels
Channel positions : Front: L C R, Side: L R, LFE
Sampling rate : 48.0 kHz
Frame rate : 187.500 FPS (256 SPF)
Compression mode : Lossy
Stream size : 12.3 MiB (3%)
Language : English
Service kind : Complete Main
Default : Yes
Forced : No

Text
ID : 3
Format : UTF-8
Codec ID : S_TEXT/UTF8
Codec ID/Info : UTF-8 Plain Text
Duration : 6 min 30 s
Bit rate : 7 b/s
Count of elements : 25
Stream size : 375 Bytes (0%)
Language : English
Default : No
Forced : No





Zenimation S02E04


Zenimation S02E04


Zenimation S02E04


Zenimation S02E04


Zenimation S02E04

All episodes