Index
# A B C D E F G H I J K L M N O P Q R S T U V W Y Z
Tags
Language
Tags

Featured TV Shows


Zenimation S02E06

Posted By: Tavaz
1080p (FullHD) / WEB-DL IMDb
Zenimation S02E06

Zenimation S02E06
WEB-DL | MKV | 1920x1080 | English | H264 @ 6348 kbps | E-AC-3 @ 256 kbps | 6 min 7 s | 290 MiB
Subtitles: English
Genre: Animation, Family


Unplug, relax, and refresh your senses for a moment of mindfulness with Walt Disney Animation Studios’ Zenimation - an animated soundscape experience.

06dc1c2e67c44ca6bcf239c4fbb71baf.mkv (289.6 MB)



General
Unique ID : 169541606185251035457925851171088916290 (0x7F8C868ED8C4231C055660B55C065F42)
Complete name : ./06dc1c2e67c44ca6bcf239c4fbb71baf.mkv
Format : Matroska
Format version : Version 4 / Version 2
File size : 290 MiB
Duration : 6 min 7 s
Overall bit rate mode : Variable
Overall bit rate : 6 606 kb/s
Encoded date : UTC 2021-06-11 12:55:38
Writing application : mkvmerge v57.0.0 ('Till The End') 64-bit
Writing library : libebml v1.4.2 + libmatroska v1.6.4

Video
ID : 1
Format : AVC
Format/Info : Advanced Video Codec
Format profile : High@L4
Format settings : CABAC / 4 Ref Frames
Format settings, CABAC : Yes
Format settings, RefFrames : 4 frames
Codec ID : V_MPEG4/ISO/AVC
Duration : 6 min 7 s
Bit rate mode : Variable
Bit rate : 6 348 kb/s
Maximum bit rate : 12.7 Mb/s
Width : 1 920 pixels
Height : 1 080 pixels
Display aspect ratio : 16:9
Frame rate mode : Constant
Frame rate : 24.000 FPS
Color space : YUV
Chroma subsampling : 4:2:0
Bit depth : 8 bits
Scan type : Progressive
Bits/(Pixel*Frame) : 0.128
Stream size : 278 MiB (96%)
Writing library : AVC Coding
Default : Yes
Forced : No
Color range : Limited
Color primaries : BT.709
Transfer characteristics : BT.709
Matrix coefficients : BT.709

Audio
ID : 2
Format : E-AC-3
Format/Info : Enhanced Audio Coding 3
Format settings, Endianness : Big
Codec ID : A_EAC3
Duration : 6 min 7 s
Bit rate mode : Constant
Bit rate : 256 kb/s
Channel(s) : 6 channels
Channel positions : Front: L C R, Side: L R, LFE
Sampling rate : 48.0 kHz
Frame rate : 187.500 FPS (256 SPF)
Compression mode : Lossy
Stream size : 11.2 MiB (4%)
Language : English
Service kind : Complete Main
Default : Yes
Forced : No

Text
ID : 3
Format : UTF-8
Codec ID : S_TEXT/UTF8
Codec ID/Info : UTF-8 Plain Text
Duration : 5 min 55 s
Bit rate : 15 b/s
Count of elements : 52
Stream size : 669 Bytes (0%)
Language : English
Default : No
Forced : No





Zenimation S02E06


Zenimation S02E06


Zenimation S02E06


Zenimation S02E06


Zenimation S02E06

All episodes