Featured TV Shows


ZeroZeroZero S01E04

Posted By: Tavaz
ZeroZeroZero S01E04

ZeroZeroZero S01E04
MKV | 1280x534 | English | H265 @ 592 kbps | E-AC-3 @ 640 kbps | 48 min 25 s | 436 MiB
Genre: Crime, Drama


Based on the book of the same name by bestselling author Roberto Saviano, ZeroZeroZero is an unforgettable exploration of the inner workings of the global cocaine trade.

9284a75570859dcad853765835a70cfe.mkv (435.7 MB)



General
Unique ID : 96423292774134777326352967241044070950 (0x488A73605AE8BB77120A836C7EC01226)
Complete name : ./9284a75570859dcad853765835a70cfe.mkv
Format : Matroska
Format version : Version 4 / Version 2
File size : 436 MiB
Duration : 48 min 25 s
Overall bit rate : 1 258 kb/s
Writing application : Lavf58.30.100
Writing library : Lavf58.30.100
ErrorDetectionType : Per level 1

Video
ID : 1
Format : HEVC
Format/Info : High Efficiency Video Coding
Format profile : Main 10@L3.1@Main
Codec ID : V_MPEGH/ISO/HEVC
Duration : 48 min 25 s
Bit rate : 593 kb/s
Width : 1 280 pixels
Height : 534 pixels
Display aspect ratio : 2.40:1
Frame rate mode : Constant
Frame rate : 25.000 FPS
Color space : YUV
Chroma subsampling : 4:2:0
Bit depth : 10 bits
Bits/(Pixel*Frame) : 0.035
Stream size : 205 MiB (47%)
Writing library : x265 3.1+11-de920e0a3183:[Windows][GCC 9.1.1][64 bit] 10bit
Encoding settings : cpuid=1111039 / frame-threads=4 / numa-pools=16 / wpp / no-pmode / no-pme / no-psnr / no-ssim / log-level=2 / input-csp=1 / input-res=1280x534 / interlace=0 / total-frames=0 / level-idc=0 / high-tier=1 / uhd-bd=0 / ref=1 / no-allow-non-conformance / no-repeat-headers / annexb / no-aud / no-hrd / info / hash=0 / no-temporal-layers / open-gop / min-keyint=25 / keyint=250 / gop-lookahead=0 / bframes=3 / b-adapt=0 / b-pyramid / bframe-bias=0 / rc-lookahead=5 / lookahead-slices=0 / scenecut=0 / radl=0 / no-splice / no-intra-refresh / ctu=32 / min-cu-size=16 / no-rect / no-amp / max-tu-size=32 / tu-inter-depth=1 / tu-intra-depth=1 / limit-tu=0 / rdoq-level=0 / dynamic-rd=0.00 / no-ssim-rd / no-signhide / no-tskip / nr-intra=0 / nr-inter=0 / no-constrained-intra / strong-intra-smoothing / max-merge=2 / limit-refs=0 / no-limit-modes / me=0 / subme=0 / merange=57 / temporal-mvp / no-hme / no-weightp / no-weightb / no-analyze-src-pics / deblock=0:0 / no-sao / no-sao-non-deblock / rd=2 / early-skip / rskip / fast-intra / no-tskip-fast / no-cu-lossless / no-b-intra / no-splitrd-skip / rdpenalty=0 / psy-rd=2.00 / psy-rdoq=0.00 / no-rd-refine / no-lossless / cbqpoffs=0 / crqpoffs=0 / rc=crf / crf=22.0 / qcomp=0.60 / qpstep=4 / stats-write=0 / stats-read=0 / ipratio=1.40 / pbratio=1.30 / aq-mode=1 / aq-strength=0.00 / cutree / zone-count=0 / no-strict-cbr / qg-size=32 / no-rc-grain / qpmax=69 / qpmin=0 / no-const-vbv / sar=1 / overscan=0 / videoformat=5 / range=0 / colorprim=2 / transfer=2 / colormatrix=2 / chromaloc=0 / display-window=0cll=0,0 / min-luma=0 / max-luma=1023 / log2-max-poc-lsb=8 / vui-timing-info / vui-hrd-info / slices=1 / no-opt-qp-pps / no-opt-ref-list-length-pps / no-multi-pass-opt-rps / scenecut-bias=0.05 / no-opt-cu-delta-qp / no-aq-motion / no-hdr / no-hdr-opt / no-dhdr10-opt / no-idr-recovery-sei / analysis-reuse-level=5 / scale-factor=0 / refine-intra=0 / refine-inter=0 / refine-mv=0 / refine-ctu-distortion=0 / no-limit-sao / ctu-info=0 / no-lowpass-dct / refine-analysis-type=0 / copy-pic=1 / max-ausize-factor=1.0 / no-dynamic-refine / no-single-sei / no-hevc-aq / no-svt / no-field / qp-adaptation-range=1.00
Default : Yes
Forced : No
Color range : Limited
Statistics Tags Issue : mkvmerge v38.0.0 ('The Silent Type') 64-bit 2020-03-06 02:06:27 / Lavf58.30.100
FromStats_BitRate : 1851727
FromStats_Duration : 00:48:25.680000000
FromStats_FrameCount : 72642
FromStats_StreamSize : 672565936

Audio
ID : 2
Format : E-AC-3
Format/Info : Enhanced Audio Coding 3
Format settings, Endianness : Big
Codec ID : A_EAC3
Duration : 48 min 25 s
Bit rate mode : Constant
Bit rate : 640 kb/s
Channel(s) : 6 channels
Channel positions : Front: L C R, Side: L R, LFE
Sampling rate : 48.0 kHz
Frame rate : 187.500 FPS (256 SPF)
Bit depth : 32 bits
Compression mode : Lossy
Stream size : 222 MiB (51%)
Language : English
Service kind : Complete Main
Default : Yes
Forced : No
Statistics Tags Issue : mkvmerge v38.0.0 ('The Silent Type') 64-bit 2020-03-06 02:06:27 / Lavf58.30.100
FromStats_BitRate : 640000
FromStats_Duration : 00:48:25.696000000
FromStats_FrameCount : 90803
FromStats_StreamSize : 232455680





ZeroZeroZero S01E04


ZeroZeroZero S01E04


ZeroZeroZero S01E04


ZeroZeroZero S01E04


ZeroZeroZero S01E04

All episodes