Subcategories

Fred Chapellier - Best Of 25 Years On The Road (2020)

Posted By: popsakov
Fred Chapellier - Best Of 25 Years On The Road (2020)

Fred Chapellier - Best Of 25 Years On The Road (2020)
2CD | EAC Rip | FLAC (Tracks) + Cue + m3u + Log ~ 988 Mb | MP3 CBR320 ~ 381 Mb
Full Scans ~ 69 Mb | 01:19:35 + 01:18:49 | RAR 5% Recovery
Modern Electric Blues | DixieFrog Records #DFGCD 8813

Double CD celebrating 25 first years of Fred Chapellier's career. One CD made of studio recordings including one unreleased track and one CD made of live recordings including one unreleased track. CD cover from illustrator Carlos Olmo.

***************

Track List CD1 - Studio:

01. Ain't No Love In The Heart Of The City [3:33]
02. It Never Comes Easy [4:52]
03. Saint On The Highway [4:19]
04. Sweet Soul Music [4:03]
05. The Gents [4:41]
06. A Silent Room [5:49]
07. Crying With The Blues [6:46]
08. Set Me Free [4:32]
09. Something About You [3:55]
10. 3'45 Am [4:38]
11. Under The Influence [5:03]
12. Marie Laveau [5:19]
13. Beyond The Moon Part II [4:09]
14. Yield Not To Temptation [3:06]
15. After Hours [3:50]
16. I Have To Go [4:26]
17. Funk It [3:21]
18. Thank You Lord [3:15]

Exact Audio Copy V1.1 from 23. June 2015

EAC extraction logfile from 17. October 2020, 20:07

Fred Chapellier / Best Of 25 Years On The Road (Studio) (cd2)

Used drive : PIONEER DVD-RW DVR-219L Adapter: 1 ID: 0

Read mode : Secure
Utilize accurate stream : Yes
Defeat audio cache : Yes
Make use of C2 pointers : No

Read offset correction : 6
Overread into Lead-In and Lead-Out : No
Fill up missing offset samples with silence : Yes
Delete leading and trailing silent blocks : No
Null samples used in CRC calculations : Yes
Used interface : Native Win32 interface for Win NT & 2000
Gap handling : Appended to previous track

Used output format : User Defined Encoder
Selected bitrate : 768 kBit/s
Quality : High
Add ID3 tag : No
Command line compressor : C:\Install\Exact Audio Copy\FLAC\FLAC.EXE
Additional command line options : -6 -V -T "ARTIST=%artist%" -T "TITLE=%title%" -T "ALBUM=%albumtitle%" -T "DATE=%year%" -T "TRACKNUMBER=%tracknr%" -T "GENRE=%genre%" -T "COMMENT=%comment%" -T "BAND=%albuminterpret%" -T "ALBUMARTIST=%albuminterpret%" -T "COMPOSER=%composer%" %haslyrics%–tag-from-file=LYRICS="%lyricsfile%"%haslyrics% -T "DISCNUMBER=%cdnumber%" -T "TOTALDISCS=%totalcds%" -T "TOTALTRACKS=%numtracks%" %hascover%–picture="%coverfile%"%hascover% %source% -o %dest%


TOC of the extracted CD

Track | Start | Length | Start sector | End sector
––––––––––––––––––––––––––––-
1 | 0:00.00 | 3:33.03 | 0 | 15977
2 | 3:33.03 | 4:51.72 | 15978 | 37874
3 | 8:25.00 | 4:19.12 | 37875 | 57311
4 | 12:44.12 | 4:02.41 | 57312 | 75502
5 | 16:46.53 | 4:40.49 | 75503 | 96551
6 | 21:27.27 | 5:48.50 | 96552 | 122701
7 | 27:16.02 | 6:46.14 | 122702 | 153165
8 | 34:02.16 | 4:31.57 | 153166 | 173547
9 | 38:33.73 | 3:54.54 | 173548 | 191151
10 | 42:28.52 | 4:37.60 | 191152 | 211986
11 | 47:06.37 | 5:02.63 | 211987 | 234699
12 | 52:09.25 | 5:19.36 | 234700 | 258660
13 | 57:28.61 | 4:09.23 | 258661 | 277358
14 | 61:38.09 | 3:06.10 | 277359 | 291318
15 | 64:44.19 | 3:49.47 | 291319 | 308540
16 | 68:33.66 | 4:25.41 | 308541 | 328456
17 | 72:59.32 | 3:21.13 | 328457 | 343544
18 | 76:20.45 | 3:14.38 | 343545 | 358132


Track 1

Filename E:\alexbras\2020 Fred Chapellier - Best Of 25 Years On The Road\Studio(cd1)\01. Ain't No Love In The Heart Of The City.wav

Pre-gap length 0:00:02.00

Peak level 99.1 %
Extraction speed 2.5 X
Track quality 100.0 %
Test CRC AAF81320
Copy CRC AAF81320
Track not present in AccurateRip database
Copy OK

Track 2

Filename E:\alexbras\2020 Fred Chapellier - Best Of 25 Years On The Road\Studio(cd1)\02. It Never Comes Easy.wav

Pre-gap length 0:00:00.06

Peak level 99.5 %
Extraction speed 2.6 X
Track quality 100.0 %
Test CRC F37D1724
Copy CRC F37D1724
Track not present in AccurateRip database
Copy OK

Track 3

Filename E:\alexbras\2020 Fred Chapellier - Best Of 25 Years On The Road\Studio(cd1)\03. Saint On The Highway.wav

Pre-gap length 0:00:02.09

Peak level 99.5 %
Extraction speed 2.6 X
Track quality 100.0 %
Test CRC BF1BA6B1
Copy CRC BF1BA6B1
Track not present in AccurateRip database
Copy OK

Track 4

Filename E:\alexbras\2020 Fred Chapellier - Best Of 25 Years On The Road\Studio(cd1)\04. Sweet Soul Music.wav

Pre-gap length 0:00:00.05

Peak level 99.5 %
Extraction speed 2.6 X
Track quality 100.0 %
Test CRC D30C8DDC
Copy CRC D30C8DDC
Track not present in AccurateRip database
Copy OK

Track 5

Filename E:\alexbras\2020 Fred Chapellier - Best Of 25 Years On The Road\Studio(cd1)\05. The Gents.wav

Pre-gap length 0:00:00.09

Peak level 99.6 %
Extraction speed 2.6 X
Track quality 100.0 %
Test CRC CC72EC91
Copy CRC CC72EC91
Track not present in AccurateRip database
Copy OK

Track 6

Filename E:\alexbras\2020 Fred Chapellier - Best Of 25 Years On The Road\Studio(cd1)\06. A Silent Room.wav

Pre-gap length 0:00:00.45

Peak level 99.5 %
Extraction speed 2.4 X
Track quality 100.0 %
Test CRC 03E64FAA
Copy CRC 03E64FAA
Track not present in AccurateRip database
Copy OK

Track 7

Filename E:\alexbras\2020 Fred Chapellier - Best Of 25 Years On The Road\Studio(cd1)\07. Crying With The Blues.wav

Pre-gap length 0:00:01.09

Peak level 99.6 %
Extraction speed 2.7 X
Track quality 100.0 %
Test CRC 2261E2B4
Copy CRC 2261E2B4
Track not present in AccurateRip database
Copy OK

Track 8

Filename E:\alexbras\2020 Fred Chapellier - Best Of 25 Years On The Road\Studio(cd1)\08. Set Me Free.wav

Pre-gap length 0:00:00.45

Peak level 99.6 %
Extraction speed 2.5 X
Track quality 100.0 %
Test CRC 2382192D
Copy CRC 2382192D
Track not present in AccurateRip database
Copy OK

Track 9

Filename E:\alexbras\2020 Fred Chapellier - Best Of 25 Years On The Road\Studio(cd1)\09. Something About You.wav

Pre-gap length 0:00:02.14

Peak level 99.5 %
Extraction speed 2.2 X
Track quality 99.9 %
Test CRC 49EDF9A7
Copy CRC 49EDF9A7
Track not present in AccurateRip database
Copy OK

Track 10

Filename E:\alexbras\2020 Fred Chapellier - Best Of 25 Years On The Road\Studio(cd1)\10. 3'45 Am.wav

Pre-gap length 0:00:01.14

Peak level 99.5 %
Extraction speed 2.6 X
Track quality 100.0 %
Test CRC 183904BC
Copy CRC 183904BC
Track not present in AccurateRip database
Copy OK

Track 11

Filename E:\alexbras\2020 Fred Chapellier - Best Of 25 Years On The Road\Studio(cd1)\11. Under The Influence.wav

Pre-gap length 0:00:01.42

Peak level 99.6 %
Extraction speed 2.6 X
Track quality 100.0 %
Test CRC 19935AF2
Copy CRC 19935AF2
Track not present in AccurateRip database
Copy OK

Track 12

Filename E:\alexbras\2020 Fred Chapellier - Best Of 25 Years On The Road\Studio(cd1)\12. Marie Laveau.wav

Pre-gap length 0:00:04.72

Peak level 99.5 %
Extraction speed 2.6 X
Track quality 100.0 %
Test CRC E5881648
Copy CRC E5881648
Track not present in AccurateRip database
Copy OK

Track 13

Filename E:\alexbras\2020 Fred Chapellier - Best Of 25 Years On The Road\Studio(cd1)\13. Beyond The Moon Part II.wav

Pre-gap length 0:00:00.10

Peak level 99.6 %
Extraction speed 2.2 X
Track quality 99.9 %
Test CRC DE0ADE1C
Copy CRC DE0ADE1C
Track not present in AccurateRip database
Copy OK

Track 14

Filename E:\alexbras\2020 Fred Chapellier - Best Of 25 Years On The Road\Studio(cd1)\14. Yield Not To Temptation.wav

Pre-gap length 0:00:03.77

Peak level 99.5 %
Extraction speed 2.5 X
Track quality 100.0 %
Test CRC 165805C8
Copy CRC 165805C8
Track not present in AccurateRip database
Copy OK

Track 15

Filename E:\alexbras\2020 Fred Chapellier - Best Of 25 Years On The Road\Studio(cd1)\15. After Hours.wav

Pre-gap length 0:00:00.37

Peak level 99.6 %
Extraction speed 2.5 X
Track quality 100.0 %
Test CRC 9833E130
Copy CRC 9833E130
Track not present in AccurateRip database
Copy OK

Track 16

Filename E:\alexbras\2020 Fred Chapellier - Best Of 25 Years On The Road\Studio(cd1)\16. I Have To Go.wav

Pre-gap length 0:00:00.01

Peak level 99.5 %
Extraction speed 2.6 X
Track quality 100.0 %
Test CRC 3CA31E00
Copy CRC 3CA31E00
Track not present in AccurateRip database
Copy OK

Track 17

Filename E:\alexbras\2020 Fred Chapellier - Best Of 25 Years On The Road\Studio(cd1)\17. Funk It.wav

Pre-gap length 0:00:00.01

Peak level 99.6 %
Extraction speed 2.1 X
Track quality 99.9 %
Test CRC CFBC2D54
Copy CRC CFBC2D54
Track not present in AccurateRip database
Copy OK

Track 18

Filename E:\alexbras\2020 Fred Chapellier - Best Of 25 Years On The Road\Studio(cd1)\18. Thank You Lord.wav

Pre-gap length 0:00:00.01

Peak level 99.5 %
Extraction speed 2.4 X
Track quality 100.0 %
Test CRC DFEEF7D9
Copy CRC DFEEF7D9
Track not present in AccurateRip database
Copy OK


None of the tracks are present in the AccurateRip database

No errors occurred

End of status report

–– CUETools DB Plugin V2.1.6

[CTDB TOCID: FWkiC2HfkLNIph8Ruo1RE1QGVi8-] found
Submit result: already submitted
Track | CTDB Status
1 | (1/1) Accurately ripped
2 | (1/1) Accurately ripped
3 | (1/1) Accurately ripped
4 | (1/1) Accurately ripped
5 | (1/1) Accurately ripped
6 | (1/1) Accurately ripped
7 | (1/1) Accurately ripped
8 | (1/1) Accurately ripped
9 | (1/1) Accurately ripped
10 | (1/1) Accurately ripped
11 | (1/1) Accurately ripped
12 | (1/1) Accurately ripped
13 | (1/1) Accurately ripped
14 | (1/1) Accurately ripped
15 | (1/1) Accurately ripped
16 | (1/1) Accurately ripped
17 | (1/1) Accurately ripped
18 | (1/1) Accurately ripped


==== Log checksum 82F2D17CCDF1E3CC27BBB7612714427EA8D342F4114CE064F7886E0D102FC301 ====

Track List CD2 - Live:

01. Rodney's Song [4:09]
02. Cold As Ice [4:14]
03. He's Walking [3:12]
04. Merry Go Round [5:20]
05. Blues For Roy [8:18]
06. Good Time Charlie [3:36]
07. Last Two Dollars [6:16]
08. Like It This Way [3:33]
09. Love That Burns [8:18]
10. I'm A Ram [3:12]
11. Gary's Gone [6:37]
12. If You Be My Baby [5:06]
13. Smart Money [4:12]
14. Living In A Dream [4:23]
15. B Shuffle [4:05]
16. Le Blues [4:18]

Exact Audio Copy V1.1 from 23. June 2015

EAC extraction logfile from 17. October 2020, 18:02

Fred Chapellier / Best Of Fred Chapellier CD2 Live

Used drive : PIONEER DVD-RW DVR-219L Adapter: 1 ID: 0

Read mode : Secure
Utilize accurate stream : Yes
Defeat audio cache : Yes
Make use of C2 pointers : No

Read offset correction : 6
Overread into Lead-In and Lead-Out : No
Fill up missing offset samples with silence : Yes
Delete leading and trailing silent blocks : No
Null samples used in CRC calculations : Yes
Used interface : Native Win32 interface for Win NT & 2000
Gap handling : Appended to previous track

Used output format : User Defined Encoder
Selected bitrate : 128 kBit/s
Quality : High
Add ID3 tag : No
Command line compressor : C:\Program Files\Exact Audio Copy\Flac\flac.exe
Additional command line options : -V -8 -T "Genre=%genre%" -T "Artist=%artist%" -T "Title=%title%" -T "Album=%albumtitle%" -T "Date=%year%" -T "Tracknumber=%tracknr%" -T "Comment=%comment%" %source%


TOC of the extracted CD

Track | Start | Length | Start sector | End sector
––––––––––––––––––––––––––––-
1 | 0:00.00 | 4:09.01 | 0 | 18675
2 | 4:09.01 | 4:13.42 | 18676 | 37692
3 | 8:22.43 | 3:12.31 | 37693 | 52123
4 | 11:34.74 | 5:19.41 | 52124 | 76089
5 | 16:54.40 | 8:17.41 | 76090 | 113405
6 | 25:12.06 | 3:36.27 | 113406 | 129632
7 | 28:48.33 | 6:16.06 | 129633 | 157838
8 | 35:04.39 | 3:33.02 | 157839 | 173815
9 | 38:37.41 | 8:18.25 | 173816 | 211190
10 | 46:55.66 | 3:11.71 | 211191 | 225586
11 | 50:07.62 | 6:37.11 | 225587 | 255372
12 | 56:44.73 | 5:06.17 | 255373 | 278339
13 | 61:51.15 | 4:11.45 | 278340 | 297209
14 | 66:02.60 | 4:22.47 | 297210 | 316906
15 | 70:25.32 | 4:05.05 | 316907 | 335286
16 | 74:30.37 | 4:18.29 | 335287 | 354665


Track 1

Filename E:\alexbras\2020 Fred Chapellier - Best Of 25 Years On The Road\Live(cd2)\01. Rodney's Song.wav

Pre-gap length 0:00:02.00

Peak level 90.7 %
Extraction speed 1.7 X
Track quality 99.9 %
Test CRC 71F11442
Copy CRC 71F11442
Track not present in AccurateRip database
Copy OK

Track 2

Filename E:\alexbras\2020 Fred Chapellier - Best Of 25 Years On The Road\Live(cd2)\02. Cold As Ice.wav

Peak level 88.9 %
Extraction speed 2.2 X
Track quality 100.0 %
Test CRC 8705A14E
Copy CRC 8705A14E
Track not present in AccurateRip database
Copy OK

Track 3

Filename E:\alexbras\2020 Fred Chapellier - Best Of 25 Years On The Road\Live(cd2)\03. He's Walking.wav

Peak level 89.7 %
Extraction speed 2.2 X
Track quality 100.0 %
Test CRC BDE9419D
Copy CRC BDE9419D
Track not present in AccurateRip database
Copy OK

Track 4

Filename E:\alexbras\2020 Fred Chapellier - Best Of 25 Years On The Road\Live(cd2)\04. Merry Go Round.wav

Peak level 88.7 %
Extraction speed 2.5 X
Track quality 100.0 %
Test CRC FC0BA407
Copy CRC FC0BA407
Track not present in AccurateRip database
Copy OK

Track 5

Filename E:\alexbras\2020 Fred Chapellier - Best Of 25 Years On The Road\Live(cd2)\05. Blues For Roy.wav

Peak level 88.2 %
Extraction speed 2.9 X
Track quality 100.0 %
Test CRC 9CFBC973
Copy CRC 9CFBC973
Track not present in AccurateRip database
Copy OK

Track 6

Filename E:\alexbras\2020 Fred Chapellier - Best Of 25 Years On The Road\Live(cd2)\06. Good Time Charlie.wav

Peak level 86.9 %
Extraction speed 2.8 X
Track quality 100.0 %
Test CRC 483FD17F
Copy CRC 483FD17F
Track not present in AccurateRip database
Copy OK

Track 7

Filename E:\alexbras\2020 Fred Chapellier - Best Of 25 Years On The Road\Live(cd2)\07. Last Two Dollars.wav

Peak level 86.6 %
Extraction speed 3.2 X
Track quality 100.0 %
Test CRC 3B0D90BC
Copy CRC 3B0D90BC
Track not present in AccurateRip database
Copy OK

Track 8

Filename E:\alexbras\2020 Fred Chapellier - Best Of 25 Years On The Road\Live(cd2)\08. Like It This Way.wav

Peak level 89.8 %
Extraction speed 3.1 X
Track quality 100.0 %
Test CRC 805372E7
Copy CRC 805372E7
Track not present in AccurateRip database
Copy OK

Track 9

Filename E:\alexbras\2020 Fred Chapellier - Best Of 25 Years On The Road\Live(cd2)\09. Love That Burns.wav

Peak level 89.5 %
Extraction speed 3.4 X
Track quality 99.9 %
Test CRC 998974B9
Copy CRC 998974B9
Track not present in AccurateRip database
Copy OK

Track 10

Filename E:\alexbras\2020 Fred Chapellier - Best Of 25 Years On The Road\Live(cd2)\10. I'm A Ram.wav

Peak level 96.6 %
Extraction speed 3.4 X
Track quality 100.0 %
Test CRC CC6943CA
Copy CRC CC6943CA
Track not present in AccurateRip database
Copy OK

Track 11

Filename E:\alexbras\2020 Fred Chapellier - Best Of 25 Years On The Road\Live(cd2)\11. Gary's Gone.wav

Peak level 88.3 %
Extraction speed 3.8 X
Track quality 100.0 %
Test CRC 6C1B2F0C
Copy CRC 6C1B2F0C
Track not present in AccurateRip database
Copy OK

Track 12

Filename E:\alexbras\2020 Fred Chapellier - Best Of 25 Years On The Road\Live(cd2)\12. If You Be My Baby.wav

Peak level 88.8 %
Extraction speed 3.9 X
Track quality 100.0 %
Test CRC CF50B230
Copy CRC CF50B230
Track not present in AccurateRip database
Copy OK

Track 13

Filename E:\alexbras\2020 Fred Chapellier - Best Of 25 Years On The Road\Live(cd2)\13. Smart Money.wav

Peak level 90.6 %
Extraction speed 3.9 X
Track quality 100.0 %
Test CRC 4E2E0BB3
Copy CRC 4E2E0BB3
Track not present in AccurateRip database
Copy OK

Track 14

Filename E:\alexbras\2020 Fred Chapellier - Best Of 25 Years On The Road\Live(cd2)\14. Living In A Dream.wav

Peak level 94.7 %
Extraction speed 3.5 X
Track quality 99.9 %
Test CRC 1F55755C
Copy CRC 1F55755C
Track not present in AccurateRip database
Copy OK

Track 15

Filename E:\alexbras\2020 Fred Chapellier - Best Of 25 Years On The Road\Live(cd2)\15. B Shuffle.wav

Peak level 88.2 %
Extraction speed 4.1 X
Track quality 100.0 %
Test CRC 951C4642
Copy CRC 951C4642
Track not present in AccurateRip database
Copy OK

Track 16

Filename E:\alexbras\2020 Fred Chapellier - Best Of 25 Years On The Road\Live(cd2)\16. Le Blues.wav

Peak level 94.8 %
Extraction speed 4.2 X
Track quality 100.0 %
Test CRC 099A4690
Copy CRC 099A4690
Track not present in AccurateRip database
Copy OK


None of the tracks are present in the AccurateRip database

No errors occurred

End of status report

==== Log checksum 2B136A39D140BE10C8E595857C70B927832B0EC675D8992BE6782B1EA7BEE0D1 ====

All thanks go to alex1248

>>> Fred Chapellier in my Blog <<<

DOWNLOAD: