Subcategories

Nena - Solo Albums Collection 2001-2012 (11CD) [Re-Up]

Posted By: Designol
Nena - Solo Albums Collection 2001-2012 (11CD) [Re-Up]

Nena - Solo Albums Collection 2001-2012 (11CD)
EAC | FLAC | Image/Tracks (Cue&Log) ~ 4.46 Gb | Mp3 (CBR320) ~ 1.57 Gb | Scans included
Dance-Pop, Dance-Rock, New Wave, Electronic | Time: 11:09:51

Collection includes five solo studio albums, one live album and one compilation by German pop/rock star Nena.

Beginning in 1982, Nena became one of the most successful pop stars Germany had ever seen, especially given the unique success of the original German-language version of the single "99 Luftballons" in the U.S. in 1984. With the full name of Nena Kerner, she had spent one year as vocalist for the Stripes (who disbanded after just one unsuccessful album in 1980), then assembled a band in Berlin called Nena. The lineup included herself as vocalist, Carlo Karges on guitar, Uwe Fahrenkrog-Petersen on keyboards, Jürgen Dehmel on bass, and Rolf Brendel on drums. Their debut single, "Nur Geträumt," became a number one success in German-speaking countries after the band's first TV appearance on the Musikladen TV program on August 21, 1982.

"99 Luftballons" followed, quickly becoming a worldwide smash, although by mid-1985, sales of Nena's records, and the attendance numbers of her 1985 tour dates, dropped, which led to the eventual end of the band in mid-1987. Beginning in 1989, Nena worked as a solo artist, releasing albums of songs composed mainly by herself and befriended musicians she chose as co-authors. (She also chose not to have a permanent band, as had been the case in the '80s, either in the studio or on tour.) Her first solo tour came in 1993, then pregnancies led to minimal live appearances until 1997. She began touring again (mainly in Germany) once or twice a year, backed predominantly by U.S. musicians in addition to Germans.

Throughout the '90s, she could be seen regularly on German TV (hosting a variety show series called Metro in 1993). She stayed true to her unique musical blend of melodic vocals paired with various rock styles ranging from the Beatles to the harder sounds of the Rolling Stones and even the Ramones (with the harder rock sound being her preferred style when on tour). Beginning in 1990, she also made a number of albums specifically for children and did voice-overs or contributed songs to animated movies and cartoon series.

After an ambitious, electronic-based album from 2001 called Chokmah failed to garner attention, 2002 found Nena celebrating the 20th anniversary of her breakthrough with an album of new versions of her hits, Feat. Nena: Live. To everyone's surprise, the audience response was sensational, actually replicating the runaway success of 20 years before. The following double album of new material in 2005, Willst Du Mit Mir Gehn (half of which premiered a heavier rock style) again went platinum, indicating that she had indeed established a strong base among a new audience. The year 2007 saw the release of a covers album entitled Cover Me, which featured Nena's own versions of tracks by the likes of the Rolling Stones and Moby. In 2009, she released Made in Germany, her 16th studio album, followed by Made in Germany Live and Best of Nena, both appearing in 2010. Du Bist Gut was released two years later. Combining elements of new wave, punk, and contemporary EDM, Oldschool arrived in 2015 and continued her over-ten-year string of Top Ten albums in her homeland.

Alan Severa, Allmusic.com

Nena - Solo Albums Collection 2001-2012 (11CD) [Re-Up]






Nena - Solo Albums Collection 2001-2012 (11CD) [Re-Up]

Nena - Chokmah (2001)
EAC | FLAC | Image (Cue&Log) ~ 475 Mb | Mp3 (CBR320) ~ 201 Mb
Label: Eastwest | # 0927-41965-2 | 01:14:01 | Scans included

Warning: Too much Chokmah can upset your equilibrium. Not even Nena herself expected this album to become what it turned out to be. From 1999 to spring 2001 she had written a sizeable collection of (unreleased) new songs, some of which she had even started playing on-stage during those years to great effect. Nevertheless, in a unique decision, as soon as her new producer and songwriting partner, Florian Sitzmann, suggested that she disregard those songs and start the new album with him from scratch, she agreed. The resulting songs they created turned out to be a clear departure from what anyone was ever used to from Nena. Listeners suddenly find her engulfed in soundscapes that bear close relation to those used by Björk or Radiohead (featured elements ranging from electronics to symphony orchestra), which also means that this album's mood is radically different from all her previous albums. In keeping with that, Nena's singing is uncharacteristically sullen, but with the added surprise bonus of odd new kinds of flourishes that pop up during the journey through this album's strange new territory – even oriental-sounding melody lines make a number of fitting appearances throughout. Nena took her cue for this album from one lone lyric fragment ("Das schockt mein system," meaning "shocking my system") and its sound affinity to a term from Jewish Kabbala mysticism that she had heard of by chance around that time: "chokmah" (meaning – among other things – wisdom/energy/transformation). That might look like Nena has "gone new age," but luckily that's not the case. All the lyrics of the new songs are variations on one common theme (a theme that Nena has touched on regularly throughout her career): contemplating the worth of consciously facing life's contradictions and trying to transform that consciousness into a kind of creative energy. The album sort of asks the question: How does it feel to try to live life without holding on to any "isms" anymore? Nena obviously recommends that approach for herself, but – in keeping with the openness of that approach- there is nothing dogmatic about the lyrics. Although that's pretty life-affirming, it's not a very comfortable proposition as such, and the combined weight of the album's songs is not easy to bear. What we do have here, however, is the most ambitious collection of music Nena has ever presented. Although some of the songs slightly suffer from over-arrangement, there are a number of absolute triumphs on this album. The highlights (about 50 percent of the album) are perfectly arranged, confidently elegant, and powerful songs like "Silbermond" or "Du Gibst," to name but two. The other half of the songs are close behind in quality, but watch out – there's no denying the downbeat feel of the album when listened to as a whole. Listened to individually, however, these new songs are quite a joy – the difference in effect really is that pronounced. For instance, when listening all the way through the length of the album (at over 70 minutes, it's Nena's longest-ever album), after all the studied elegance, it's quite a relief to hear Nena reverting to rocking-out mode on the hidden track at the end – and that's a trait she made clear (in interviews after the album's release) that she was in fact not about to give up. The intention was rather to integrate her newfound style and scope into the kind of music she's famous for.

Alan Severa, Allmusic.com

Tracklist:

01. Chokmah (4:27)
02. Heute hab' ich die Sonne mit dem Mond verwechselt (4:12)
03. Carpe Diem (4:42)
04. Lass die Leinen los (5:20)
05. Ich hr' mir zu (3:59)
06. Lichtarbeiter (4:50)
07. Rede lieber nicht zu viel (4:50)
08. Kann schon sein (4:03)
09. Silbermond (5:41)
10. Club der Leisen (6:09)
11. Du gibst (4:17)
12. Leuchtturm (3:30)
13. Dafr ist das Leben zu kurz (5:49)
14. Carpe Diem (Shne Mannheims Dancehall-Mix) (12:13)


Exact Audio Copy V0.99 prebeta 5 from 4. May 2009

Отчёт EAC об извлечении, выполненном 1. января 2012, 14:55

Nena / Chokmah

Дисковод: HL-DT-STDVDRAM GSA-H10N Adapter: 0 ID: 0

Режим чтения : Достоверность
Использование точного потока : Да
Отключение кэша аудио : Да
Использование указателей C2 : Нет

Коррекция смещения при чтении : 667
Способность читать области Lead-in и Lead-out : Нет
Заполнение пропущенных сэмплов тишиной : Да
Удаление блоков с тишиной в начале и конце : Нет
При вычислениях CRC использовались нулевые сэмплы : Да
Интерфейс : Встроенный Win32-интерфейс для Win NT/2000

Выходной формат : Внутренние WAV-операции
Формат сэмплов : 44.100 Гц; 16 бит; стерео


TOC извлечённого CD

Трек | Старт | Длительность | Начальный сектор | Конечный сектор
––––––––––––––––––––––––––––––––––-
1 | 0:00.00 | 4:27.22 | 0 | 20046
2 | 4:27.22 | 4:12.15 | 20047 | 38961
3 | 8:39.37 | 4:41.65 | 38962 | 60101
4 | 13:21.27 | 5:19.38 | 60102 | 84064
5 | 18:40.65 | 3:59.15 | 84065 | 102004
6 | 22:40.05 | 4:49.42 | 102005 | 123721
7 | 27:29.47 | 4:50.00 | 123722 | 145471
8 | 32:19.47 | 4:03.03 | 145472 | 163699
9 | 36:22.50 | 5:40.72 | 163700 | 189271
10 | 42:03.47 | 6:08.70 | 189272 | 216941
11 | 48:12.42 | 4:17.00 | 216942 | 236216
12 | 52:29.42 | 3:29.43 | 236217 | 251934
13 | 55:59.10 | 5:48.65 | 251935 | 278099
14 | 61:48.00 | 12:13.05 | 278100 | 333079


Характеристики диапазона извлечения и сообщения об ошибках

Выбранный диапазон

Имя файла K:\Nena - Chokmah 2001\Nena - Chokmah.wav

Пиковый уровень 100.0 %
Качество диапазона 99.9 %
CRC теста 6C5A9870
CRC копии 6C5A9870
Копирование… OK

Ошибок не произошло


AccurateRip: сводка

Трек 1 точное извлечение (доверие 12) [CE19DD98]
Трек 2 точное извлечение (доверие 12) [E219E63C]
Трек 3 точное извлечение (доверие 12) [0ED24A77]
Трек 4 точное извлечение (доверие 12) [51A4FB46]
Трек 5 точное извлечение (доверие 12) [379DB338]
Трек 6 точное извлечение (доверие 12) [62D92E7F]
Трек 7 точное извлечение (доверие 12) [7A8B1AF5]
Трек 8 точное извлечение (доверие 12) [C83A3C9E]
Трек 9 точное извлечение (доверие 12) [9E0B7DE1]
Трек 10 точное извлечение (доверие 12) [8D7A3F79]
Трек 11 точное извлечение (доверие 12) [DCCCFD6C]
Трек 12 точное извлечение (доверие 11) [05A75958]
Трек 13 точное извлечение (доверие 12) [5A3377CF]
Трек 14 точное извлечение (доверие 12) [60B6717A]

Все треки извлечены точно

Конец отчёта

[CUETools log; Date: 14.06.2017 19:39:21; Version: 2.1.4]
[CTDB TOCID: jzDVERPb4ld22w.ar9k6rTUWSDA-] found.
Track | CTDB Status
1 | (42/45) Accurately ripped
2 | (44/45) Accurately ripped
3 | (43/45) Accurately ripped
4 | (44/45) Accurately ripped
5 | (43/45) Accurately ripped
6 | (44/45) Accurately ripped
7 | (44/45) Accurately ripped
8 | (44/45) Accurately ripped
9 | (44/45) Accurately ripped
10 | (44/45) Accurately ripped
11 | (43/45) Accurately ripped
12 | (44/45) Accurately ripped
13 | (44/45) Accurately ripped
14 | (44/45) Accurately ripped
[AccurateRip ID: 00223c25-01716f73-aa11590e] found.
Track [ CRC | V2 ] Status
01 [ce19dd98|ffcbfac0] (14+13/29) Accurately ripped
02 [e219e63c|93be0d88] (14+13/30) Accurately ripped
03 [0ed24a77|495d55c9] (14+13/30) Accurately ripped
04 [51a4fb46|0fcdd696] (13+13/29) Accurately ripped
05 [379db338|a68619bd] (13+13/29) Accurately ripped
06 [62d92e7f|0c5d38e5] (14+13/30) Accurately ripped
07 [7a8b1af5|8170297e] (13+13/29) Accurately ripped
08 [c83a3c9e|6bee9622] (14+13/30) Accurately ripped
09 [9e0b7de1|1f285e19] (14+13/30) Accurately ripped
10 [8d7a3f79|21102fbb] (13+13/29) Accurately ripped
11 [dcccfd6c|e683112c] (13+13/29) Accurately ripped
12 [05a75958|feb9ccb2] (12+13/28) Accurately ripped
13 [5a3377cf|7de86397] (13+12/28) Accurately ripped
14 [60b6717a|4f21c255] (13+11/27) Accurately ripped
Offsetted by -664:
01 [563a6338] (00/29) No match (V2 was not tested)
02 [6e16fd4c] (00/30) No match (V2 was not tested)
03 [237c3ce9] (00/30) No match (V2 was not tested)
04 [02e22d8c] (00/29) No match (V2 was not tested)
05 [2b4990e9] (00/29) No match (V2 was not tested)
06 [632f0026] (00/30) No match (V2 was not tested)
07 [39fe394d] (00/29) No match (V2 was not tested)
08 [200ece7e] (00/30) No match (V2 was not tested)
09 [940a6f89] (00/30) No match (V2 was not tested)
10 [b4a2ee81] (00/29) No match (V2 was not tested)
11 [528f6484] (00/29) No match (V2 was not tested)
12 [91f30c00] (00/28) No match (V2 was not tested)
13 [c18d23cf] (00/28) No match (V2 was not tested)
14 [99a85b92] (00/27) No match (V2 was not tested)

Track Peak [ CRC32 ] [W/O NULL] [ LOG ]
– 100,0 [6C5A9870] [68CEBABB] CRC32
01 98,8 [9C882203] [97F6E039]
02 98,8 [45A5502F] [6C8B1D5E]
03 98,8 [C0CC4206] [DE95789F]
04 98,8 [6B031492] [61509A6F]
05 98,8 [71A8559F] [749FE8D3]
06 98,8 [F39E3194] [F8E2620B]
07 98,8 [DA93C532] [31F97FF5]
08 98,8 [617882AB] [9BC03BFE]
09 100,0 [C66CC2CE] [834D0A37]
10 98,8 [54B054E7] [D16B2667]
11 98,8 [6F1CCAAE] [85AD86E7]
12 98,8 [0DF6660E] [F146C973]
13 98,8 [6DCBE83E] [F050A8A2]
14 98,8 [89DE38F3] [C2C5800F]

foobar2000 1.2 / Dynamic Range Meter 1.1.1
log date: 2017-06-14 20:22:38

––––––––––––––––––––––––––––––––––––––––
Analyzed: Nena / Chokmah
––––––––––––––––––––––––––––––––––––––––

DR Peak RMS Duration Track
––––––––––––––––––––––––––––––––––––––––
DR8 -0.10 dB -9.87 dB 4:27 01-Chokmah
DR8 -0.10 dB -8.98 dB 4:12 02-Heute hab' ich die Sonne mit dem Mond verwechselt
DR8 -0.10 dB -9.40 dB 4:42 03-Carpe Diem
DR7 -0.10 dB -9.91 dB 5:20 04-Lass die Leinen los
DR10 -0.10 dB -13.04 dB 3:59 05-Ich hr' mir zu
DR8 -0.10 dB -9.76 dB 4:50 06-Lichtarbeiter
DR8 -0.10 dB -8.96 dB 4:50 07-Rede lieber nicht zu viel
DR7 -0.10 dB -9.61 dB 4:03 08-Kann schon sein
DR7 0.00 dB -9.39 dB 5:41 09-Silbermond
DR7 -0.10 dB -9.33 dB 6:09 10-Club der Leisen
DR8 -0.10 dB -10.99 dB 4:17 11-Du gibst
DR8 -0.10 dB -9.95 dB 3:30 12-Leuchtturm
DR7 -0.10 dB -10.19 dB 5:49 13-Dafr ist das Leben zu kurz
DR7 -0.10 dB -11.69 dB 12:13 14-Carpe Diem (Shne Mannheims Dancehall-Mix)
––––––––––––––––––––––––––––––––––––––––

Number of tracks: 14
Official DR value: DR8

Samplerate: 44100 Hz
Channels: 2
Bits per sample: 16
Bitrate: 839 kbps
Codec: FLAC
================================================================================




Nena - Solo Albums Collection 2001-2012 (11CD) [Re-Up]

Nena - Nena feat. Nena (2003) 20 Jahre Edition
EAC | FLAC | Image (Cue&Log) ~ 408 Mb | Mp3 (CBR320) ~ 146 Mb
Label: Warner | # 5050466-4332-2-0 | 00:57:30 | Scans included

This 2002 collection from German new wave star Nena includes 14 re-recorded versions of some of her biggest hits, including the international smash “99 Luftballons.” It also features collaborations with Kim Wilde, Tok Tok, Udo Lindenberg, and Joachim Witt.

James Christopher Monger, Allmusic.com

Tracklist:

01. 99 Luftballons (5:06)
02. Anyplace, Anywhere, Anytime (feat. Kim Wilde) (4:03)
03. Nur getraeumt (2:55)
04. Leuchtturm (4:14)
05. ? (Fragezeichen) (4:08)
06. Wunder geschehen (feat. Witt) (3:50)
07. Jetzt bist du weg (feat. Udo Lindenberg) (4:48)
08. Lass mich dein Pirat sein (3:31)
09. Es regnet (4:42)
10. Lichtarbeiter (4:55)
11. Vollmond (2:42)
12. Irgendwie, irgendwo, irgendwann (4:03)
13. Ich haeng immer noch an dir (feat. TokTok) (3:52)
14. Wunder geschehen (4:40)


Exact Audio Copy V0.99 prebeta 5 from 4. May 2009

EAC extraction logfile from 6. January 2010, 18:47

Nena / Nena feat. Nena 20 Jahre Edition

Used drive : HL-DT-STDVDRAM_GSA-T20N Adapter: 0 ID: 0

Read mode : Secure
Utilize accurate stream : Yes
Defeat audio cache : Yes
Make use of C2 pointers : No

Read offset correction : 667
Overread into Lead-In and Lead-Out : No
Fill up missing offset samples with silence : Yes
Delete leading and trailing silent blocks : No
Null samples used in CRC calculations : Yes
Used interface : Native Win32 interface for Win NT & 2000

Used output format : User Defined Encoder
Selected bitrate : 768 kBit/s
Quality : High
Add ID3 tag : No
Command line compressor : C:\Program Files\Exact Audio Copy\Flac\flac.exe
Additional command line options : -6 -V -T "ARTIST=%a" -T "TITLE=%t" -T "ALBUM=%g" -T "DATE=%y" -T "TRACKNUMBER=%n" -T "GENRE=%m" -T "COMMENT=%e" %s -o %d


TOC of the extracted CD

Track | Start | Length | Start sector | End sector
––––––––––––––––––––––––––––-
1 | 0:00.00 | 5:06.01 | 0 | 22950
2 | 5:06.01 | 4:03.34 | 22951 | 41209
3 | 9:09.35 | 2:55.33 | 41210 | 54367
4 | 12:04.68 | 4:14.17 | 54368 | 73434
5 | 16:19.10 | 4:07.68 | 73435 | 92027
6 | 20:27.03 | 3:49.68 | 92028 | 109270
7 | 24:16.71 | 4:48.05 | 109271 | 130875
8 | 29:05.01 | 3:30.40 | 130876 | 146665
9 | 32:35.41 | 4:42.01 | 146666 | 167816
10 | 37:17.42 | 4:55.22 | 167817 | 189963
11 | 42:12.64 | 2:42.15 | 189964 | 202128
12 | 44:55.04 | 4:03.20 | 202129 | 220373
13 | 48:58.24 | 3:51.46 | 220374 | 237744
14 | 52:49.70 | 4:40.19 | 237745 | 258763
15 | 60:02.14 | 13:55.61 | 270164 | 332849


Range status and errors

Selected range

Filename D:\Music\Nena - Nena feat. Nena 20 Jahre Edition.wav

Peak level 99.4 %
Range quality 99.9 %
Test CRC 385ADB21
Copy CRC 385ADB21
Copy OK

No errors occurred


AccurateRip summary

Track 1 accurately ripped (confidence 2) [E205B856]
Track 2 accurately ripped (confidence 5) [7A00210F]
Track 3 accurately ripped (confidence 5) [42F8B976]
Track 4 accurately ripped (confidence 10) [C24D53B9]
Track 5 accurately ripped (confidence 4) [D58BCE17]
Track 6 accurately ripped (confidence 5) [ECDEA31A]
Track 7 accurately ripped (confidence 3) [6EAFF4F0]
Track 8 accurately ripped (confidence 5) [1B873DBB]
Track 9 accurately ripped (confidence 3) [90618DF5]
Track 10 accurately ripped (confidence 3) [EC001C4B]
Track 11 accurately ripped (confidence 4) [6BF27423]
Track 12 accurately ripped (confidence 8) [616F55B0]
Track 13 accurately ripped (confidence 4) [8D35D987]
Track 14 accurately ripped (confidence 3) [A37859FF]

All tracks accurately ripped

End of status report

[CUETools log; Date: 14.06.2017 19:40:37; Version: 2.1.4]
CD-Extra data track length 13:55:61.
[CTDB TOCID: q8Q5DnrONYzSvHuNijYBtOWyIZM-] found.
Track | CTDB Status
1 | ( 15/301) Accurately ripped, or (1/301) differs in 1 samples @00:10:42, or (1/301) differs in 2 samples @02:10:42,04:46:42
2 | ( 15/301) Accurately ripped, or (1/301) differs in 4 samples @01:41:41,02:53:31,03:41:31
3 | ( 18/301) Accurately ripped
4 | ( 15/301) Accurately ripped, or (1/301) differs in 3 samples @01:16:49,01:52:39
5 | ( 16/301) Accurately ripped, or (1/301) differs in 4 samples @01:41:22,02:17:22,02:59:32,03:05:32
6 | ( 17/301) Accurately ripped, or (1/301) differs in 1 samples @01:47:29
7 | ( 15/301) Accurately ripped, or (1/301) differs in 6 samples @01:46:46,01:58:46,03:10:46,04:16:46
8 | ( 15/301) Accurately ripped, or (1/301) differs in 2 samples @02:11:41,02:41:41
9 | ( 17/301) Accurately ripped
10 | ( 14/301) Accurately ripped, or (1/301) differs in 3 samples @03:22:65,04:23:00
11 | ( 10/301) Accurately ripped, or (1/301) differs in 1 samples @01:46:42, or (1/301) differs in 2 samples @00:10:53,02:10:53
12 | ( 15/301) Accurately ripped, or (1/301) differs in 1 samples @01:05:28
13 | ( 15/301) Accurately ripped, or (1/301) differs in 2 samples @01:59:18,02:41:08
14 | ( 12/301) Accurately ripped, or (1/301) differs in 5 samples @03:28:37,04:04:37
[AccurateRip ID: 001ed934-014ce90b-e011560f] found.
Track [ CRC | V2 ] Status
01 [e205b856|f42c356a] (005+009/132) Accurately ripped
02 [7a00210f|0ce45d16] (008+009/128) Accurately ripped
03 [42f8b976|5aed5181] (009+006/133) Accurately ripped
04 [c24d53b9|7db39023] (013+007/129) Accurately ripped
05 [d58bce17|9f276369] (008+008/131) Accurately ripped
06 [ecdea31a|12a32591] (009+009/141) Accurately ripped
07 [6eaff4f0|5d71d457] (006+009/130) Accurately ripped
08 [1b873dbb|d6ed03f1] (009+009/144) Accurately ripped
09 [90618df5|eac6060c] (006+008/130) Accurately ripped
10 [ec001c4b|aa3278ed] (007+008/115) Accurately ripped
11 [6bf27423|571e699d] (007+007/130) Accurately ripped
12 [616f55b0|5998251a] (011+009/135) Accurately ripped
13 [8d35d987|80eeff0b] (006+008/134) Accurately ripped
14 [a37859ff|862cc72a] (006+008/121) Accurately ripped
Offsetted by 1176:
01 [adbaf210] (000/132) No match (V2 was not tested)
02 [49e41361] (000/128) No match (V2 was not tested)
03 [a2f1a376] (000/133) No match (V2 was not tested)
04 [fe906983] (000/129) No match (V2 was not tested)
05 [c07f98d6] (000/131) No match (V2 was not tested)
06 [05f615ca] (000/141) No match (V2 was not tested)
07 [995048fc] (000/130) No match (V2 was not tested)
08 [11bcfa1c] (000/144) No match (V2 was not tested)
09 [7fd96650] (000/130) No match (V2 was not tested)
10 [1770c8e1] (000/115) No match (V2 was not tested)
11 [96980c5e] (000/130) No match (V2 was not tested)
12 [4c2ba44b] (000/135) No match (V2 was not tested)
13 [7bffa530] (000/134) No match (V2 was not tested)
14 [99541a30] (000/121) No match (V2 was not tested)

Track Peak [ CRC32 ] [W/O NULL] [ LOG ]
– 99,4 [385ADB21] [BBEF73F6] CRC32
01 99,0 [C44519BF] [7056C282]
02 98,9 [1975CB8B] [0F13F301]
03 98,9 [B8E724CA] [AEEBFD9C]
04 97,6 [2700ED38] [54BC9A9D]
05 92,8 [957C67B6] [890886F2]
06 94,9 [D58A0E4D] [58AD4CD0]
07 93,1 [CDD53A15] [A0ED0290]
08 92,7 [3624E0EB] [C76920ED]
09 98,8 [600C2E21] [D7C05AF8]
10 99,3 [CDBABA33] [1F7B1332]
11 98,8 [04168F4D] [040A2FD0]
12 99,0 [B7DD8572] [A7D4194E]
13 99,4 [0590D3C3] [1A4D1ACD]
14 98,8 [2A3C7D8D] [8133BE86]

foobar2000 1.2 / Dynamic Range Meter 1.1.1
log date: 2017-06-14 20:18:00

––––––––––––––––––––––––––––––––––––––––
Analyzed: Nena / Nena feat. Nena 20 Jahre Edition
––––––––––––––––––––––––––––––––––––––––

DR Peak RMS Duration Track
––––––––––––––––––––––––––––––––––––––––
DR5 -0.09 dB -7.67 dB 5:06 01-99 Luftballons
DR7 -0.09 dB -8.53 dB 4:03 02-Anyplace, Anywhere, Anytime (feat. Kim Wilde)
DR7 -0.09 dB -9.14 dB 2:55 03-Nur getraeumt
DR8 -0.20 dB -9.76 dB 4:14 04-Leuchtturm
DR6 -0.64 dB -9.28 dB 4:08 05-? (Fragezeichen)
DR7 -0.45 dB -9.65 dB 3:50 06-Wunder geschehen (feat. Witt)
DR7 -0.62 dB -10.00 dB 4:48 07-Jetzt bist du weg (feat. Udo Lindenberg)
DR8 -0.66 dB -10.74 dB 3:31 08-Lass mich dein Pirat sein
DR7 -0.10 dB -8.91 dB 4:42 09-Es regnet
DR11 -0.05 dB -13.40 dB 4:55 10-Lichtarbeiter
DR8 -0.10 dB -10.68 dB 2:42 11-Vollmond
DR7 -0.09 dB -8.59 dB 4:03 12-Irgendwie, irgendwo, irgendwann
DR8 -0.05 dB -9.78 dB 3:52 13-Ich haeng immer noch an dir (feat. TokTok)
DR8 -0.10 dB -10.89 dB 4:40 14-Wunder geschehen
––––––––––––––––––––––––––––––––––––––––

Number of tracks: 14
Official DR value: DR7

Samplerate: 44100 Hz
Channels: 2
Bits per sample: 16
Bitrate: 957 kbps
Codec: FLAC
================================================================================




Nena - Solo Albums Collection 2001-2012 (11CD) [Re-Up]

Nena - Willst du mit mir gehn (2005) 2CDs
EAC | FLAC | Image (Cue&Log) ~ 704 Mb | Mp3 (CBR320) ~ 237 Mb
Label: Warner | # 5050467-7894-5-6 | 01:44:07 | Scans ~ 72 Mb

It was Nena's all-important follow-up album, after the spectacular return to massive success brought on by her 20th anniversary album, Nena Feat. Nena (a triumph of marketing, especially considering the uncharacteristically below-par content of those re-recordings of past hits – commonly a dubious exercise even for the best of artists). The album's title asks Willst Du mit Mir Gehen? (Are You Going With Me?) and the newly won audience indeed did "go along" by again securing platinum status. The double set (one "red" CD, one "orange") mirrors Nena's newly disjointed take on music: the "red" album (recorded mainly in Berlin) initially just seems like an unambitious return to simplicity (after the intricate Chokmah album of 2001). Worse still, it begins with two of four disco-based songs (a "style" she had always been wise enough to avoid until then). But never fear, that can easily be discounted (as inexplicable as it is), in comparison to the remaining three quarters of this lavish double set. In fact, the "orange" album (culled from spontaneous sessions with her touring band during a summer break on the Spanish island of Mallorca) turns out to be a sensational step forward: Nena finally takes the no-holds-barred plunge into the kind of music that she grew up admiring but had never fully used for her own songwriting. What you get here is mostly slow-moving, free-flowing, expansive rock, somber but soothing music, fully enveloping the listener in warm soundscapes, echoing elements of Pink Floyd and Led Zeppelin (including the latter's Asian influences). These songs are very much about irritation and a lack of obvious solutions – a revolutionary break from Nena's usual conciliatory image. But there lies the logic of putting the "red" and "orange" albums into one set: to expand the usual spectrum. Knowing the "orange" album, it becomes clear that its influence also "radiates" into a portion of the "red" songs. Some of those are simple but "classic Nena," like the top hit ballad "Liebe Ist," or the beautifully balanced "Immer Weiter," but others already touch on the special "flowing atmosphere" that dominates the "orange" part. By just indulging (including keeping the lyrics really basic and "simple") and disregarding the pressure of "having to make it this time," Nena found the right path, and richly set the stage for further developments.

Alan Severa, Allmusic.com

Tracklist:

CD1:

01. Willst Du mit mir gehn (3:46)
02. Lass mich (3:27)
03. Und jetzt steh ich hier und warte (4:47)
04. Liebe ist (4:55)
05. Ich komm mit Dir (4:06)
06. Immer weiter (4:11)
07. Ohne Liebe bin ich nichts (Berlin Version) (3:44)
08. Vitamine (4:08)
09. Wir fliegen (3:45)
10. Neues Land (4:53)
11. Der Anfang (8:29)

CD2:

01. Ja kann man denn da ueberhaupt was machen / Ich will was Neues (9:05)
02. Es ist noch nicht zu spaet / Das ist der Anfang (7:57)
03. Ohne Liebe bin ich nichts (3:15)
04. Machs doch (11:06)
05. Hey Pauli ein neuer Ton (3:40)
06. Wenn die Sonne scheint (4:40)
07. Das vertraegt sich nicht mit uns (3:48)
08. Hochzeit je t'aime (6:39)
09. Die Tuer geht zu (3:47)


Exact Audio Copy V0.99 prebeta 5 from 4. May 2009

EAC extraction logfile from 15. November 2010, 9:36

Nena / Willst du mit mir gehn (CD 1/2)

Used drive : HL-DT-STDVDRAM_GSA-T20N Adapter: 0 ID: 0

Read mode : Secure
Utilize accurate stream : Yes
Defeat audio cache : Yes
Make use of C2 pointers : No

Read offset correction : 667
Overread into Lead-In and Lead-Out : No
Fill up missing offset samples with silence : Yes
Delete leading and trailing silent blocks : No
Null samples used in CRC calculations : Yes
Used interface : Native Win32 interface for Win NT & 2000

Used output format : User Defined Encoder
Selected bitrate : 1024 kBit/s
Quality : High
Add ID3 tag : No
Command line compressor : C:\Program Files\Exact Audio Copy\Flac\flac.exe
Additional command line options : -8 -V %s


TOC of the extracted CD

Track | Start | Length | Start sector | End sector
––––––––––––––––––––––––––––-
1 | 0:00.00 | 3:46.07 | 0 | 16956
2 | 3:46.07 | 3:27.03 | 16957 | 32484
3 | 7:13.10 | 4:46.70 | 32485 | 54004
4 | 12:00.05 | 4:54.65 | 54005 | 76119
5 | 16:54.70 | 4:06.20 | 76120 | 94589
6 | 21:01.15 | 4:10.65 | 94590 | 113404
7 | 25:12.05 | 3:43.47 | 113405 | 130176
8 | 28:55.52 | 4:07.55 | 130177 | 148756
9 | 33:03.32 | 3:44.55 | 148757 | 165611
10 | 36:48.12 | 4:53.15 | 165612 | 187601
11 | 41:41.27 | 8:29.28 | 187602 | 225804


Range status and errors

Selected range

Filename C:\Music\Nena - Willst du mit mir gehn (CD 1).wav

Peak level 100.0 %
Range quality 100.0 %
Test CRC 30CCE5BE
Copy CRC 30CCE5BE
Copy OK

No errors occurred


AccurateRip summary

Track 1 accurately ripped (confidence 4) [92980A02]
Track 2 accurately ripped (confidence 4) [9AAEA132]
Track 3 accurately ripped (confidence 4) [352B47EC]
Track 4 accurately ripped (confidence 4) [6BB5BE22]
Track 5 accurately ripped (confidence 4) [F3C4D39D]
Track 6 accurately ripped (confidence 4) [A030EE30]
Track 7 accurately ripped (confidence 4) [B75D570E]
Track 8 accurately ripped (confidence 4) [4304015C]
Track 9 accurately ripped (confidence 4) [DF8074B8]
Track 10 accurately ripped (confidence 4) [4DFF62EE]
Track 11 accurately ripped (confidence 4) [443B5875]

All tracks accurately ripped

End of status report

[CUETools log; Date: 14.06.2017 19:41:05; Version: 2.1.4]
[CTDB TOCID: x_tsnn1hj1GOdK4BrGkhlhW8G8A-] found.
Track | CTDB Status
1 | ( 22/188) Accurately ripped, or (151/188) differs in 3 samples @02:55:37-02:55:38,03:25:62
2 | ( 23/188) Accurately ripped, or (151/188) differs in 13 samples @00:14:71,02:25:33,02:39:50-02:39:51,03:21:34-03:21:43
3 | ( 24/188) Accurately ripped, or (151/188) differs in 14 samples @00:02:05,00:02:39-00:02:40,00:02:51,00:02:58-00:02:63,00:02:73-00:03:10
4 | (185/188) Accurately ripped
5 | (186/188) Accurately ripped
6 | ( 23/188) Accurately ripped, or (151/188) differs in 53 samples @00:58:54,01:27:30,01:53:73,02:07:43-02:08:14,02:08:21-02:08:23,02:08:30,02:08:35-02:08:39,03:52:68-03:52:71
7 | ( 23/188) Accurately ripped, or (151/188) differs in 5 samples @00:01:00,02:29:62
8 | (183/188) Accurately ripped
9 | ( 23/188) Accurately ripped, or (151/188) differs in 2 samples @00:48:24
10 | ( 23/188) Accurately ripped, or (151/188) differs in 2 samples @01:55:55,03:01:35
11 | ( 23/188) Accurately ripped, or (151/188) differs in 163 samples @05:25:17-05:26:55,05:26:61-05:27:16,05:49:74,07:16:55-07:16:56
[AccurateRip ID: 0013014b-00a64e34-7c0bc20b] found.
Track [ CRC | V2 ] Status
01 [92980a02|d7e3c3e2] (006+008/143) Accurately ripped
02 [9aaea132|7bd27a09] (006+009/146) Accurately ripped
03 [352b47ec|b6d9ca6e] (006+009/148) Accurately ripped
04 [6bb5be22|7a880d33] (006+010/147) Accurately ripped
05 [f3c4d39d|bf005b9c] (006+009/144) Accurately ripped
06 [a030ee30|4820a8c2] (006+009/145) Accurately ripped
07 [b75d570e|e3b39b92] (006+009/146) Accurately ripped
08 [4304015c|83777362] (006+009/147) Accurately ripped
09 [df8074b8|daf76631] (006+009/148) Accurately ripped
10 [4dff62ee|73c8c990] (006+009/147) Accurately ripped
11 [443b5875|d39f5eeb] (006+009/145) Accurately ripped
Offsetted by -5:
01 [35236254] (000/143) No match (V2 was not tested)
02 [dc33897d] (000/146) No match (V2 was not tested)
03 [c565ace7] (000/148) No match (V2 was not tested)
04 [cd4da1cf] (058/147) Accurately ripped
05 [93a2c258] (057/144) Accurately ripped
06 [2c978ee7] (000/145) No match (V2 was not tested)
07 [a084a196] (000/146) No match (V2 was not tested)
08 [35df6c7b] (059/147) Accurately ripped
09 [402f363f] (000/148) No match (V2 was not tested)
10 [cf9c528a] (000/147) No match (V2 was not tested)
11 [f967acb0] (000/145) No match (V2 was not tested)

Track Peak [ CRC32 ] [W/O NULL] [ LOG ]
– 100,0 [30CCE5BE] [9B91BBDE] CRC32
01 97,7 [375FEA6F] [3848F827]
02 100,0 [2AAA7DCE] [A46CE644]
03 100,0 [8683D64E] [E0C55BD5]
04 99,9 [57E62926] [B45471D8]
05 98,8 [0EAC3157] [DCE85ACD]
06 100,0 [004EEB25] [F253F460]
07 100,0 [D02FAFC0] [5D69D641]
08 99,9 [BF153A6E] [81C3D88F]
09 100,0 [4527F37B] [747A31D8]
10 100,0 [A7565CF4] [CEC80AD8]
11 100,0 [6BEE0E6D] [57CE9471]

foobar2000 1.2 / Dynamic Range Meter 1.1.1
log date: 2017-06-14 20:20:42

––––––––––––––––––––––––––––––––––––––––
Analyzed: Nena / Willst du mit mir gehn (CD 1/2)
––––––––––––––––––––––––––––––––––––––––

DR Peak RMS Duration Track
––––––––––––––––––––––––––––––––––––––––
DR6 -0.20 dB -7.65 dB 3:46 01-Willst Du mit mir gehn
DR5 0.00 dB -6.25 dB 3:27 02-Lass mich
DR5 0.00 dB -7.34 dB 4:47 03-Und jetzt steh ich hier und warte
DR5 -0.01 dB -7.47 dB 4:55 04-Liebe ist
DR6 -0.10 dB -7.49 dB 4:06 05-Ich komm mit Dir
DR5 0.00 dB -6.83 dB 4:11 06-Immer weiter
DR5 0.00 dB -7.90 dB 3:44 07-Ohne Liebe bin ich nichts (Berlin Version)
DR5 0.00 dB -7.59 dB 4:08 08-Vitamine
DR8 0.00 dB -10.79 dB 3:45 09-Wir fliegen
DR6 0.00 dB -7.34 dB 4:53 10-Neues Land
DR5 0.00 dB -7.55 dB 8:29 11-Der Anfang
––––––––––––––––––––––––––––––––––––––––

Number of tracks: 11
Official DR value: DR6

Samplerate: 44100 Hz
Channels: 2
Bits per sample: 16
Bitrate: 961 kbps
Codec: FLAC
================================================================================


Exact Audio Copy V0.99 prebeta 5 from 4. May 2009

EAC extraction logfile from 15. November 2010, 10:09

Nena / Willst du mit mir gehn (CD 2)

Used drive : HL-DT-STDVDRAM_GSA-T20N Adapter: 0 ID: 0

Read mode : Secure
Utilize accurate stream : Yes
Defeat audio cache : Yes
Make use of C2 pointers : No

Read offset correction : 667
Overread into Lead-In and Lead-Out : No
Fill up missing offset samples with silence : Yes
Delete leading and trailing silent blocks : No
Null samples used in CRC calculations : Yes
Used interface : Native Win32 interface for Win NT & 2000

Used output format : User Defined Encoder
Selected bitrate : 1024 kBit/s
Quality : High
Add ID3 tag : No
Command line compressor : C:\Program Files\Exact Audio Copy\Flac\flac.exe
Additional command line options : -8 -V %s


TOC of the extracted CD

Track | Start | Length | Start sector | End sector
––––––––––––––––––––––––––––-
1 | 0:00.00 | 9:04.47 | 0 | 40846
2 | 9:04.47 | 7:57.09 | 40847 | 76630
3 | 17:01.56 | 3:14.67 | 76631 | 91247
4 | 20:16.48 | 11:06.27 | 91248 | 141224
5 | 31:23.00 | 3:40.21 | 141225 | 157745
6 | 35:03.21 | 4:39.60 | 157746 | 178730
7 | 39:43.06 | 3:47.66 | 178731 | 195821
8 | 43:30.72 | 6:38.56 | 195822 | 225727
9 | 50:09.53 | 3:46.40 | 225728 | 242717


Range status and errors

Selected range

Filename C:\Music\Nena - Willst du mit mir gehn (CD 2).wav

Peak level 100.0 %
Range quality 100.0 %
Test CRC F6425168
Copy CRC F6425168
Copy OK

No errors occurred


AccurateRip summary

Track 1 accurately ripped (confidence 4) [AF33A334]
Track 2 accurately ripped (confidence 4) [B97D3823]
Track 3 accurately ripped (confidence 4) [13C59C6A]
Track 4 accurately ripped (confidence 4) [B7559949]
Track 5 accurately ripped (confidence 4) [99DA0870]
Track 6 accurately ripped (confidence 4) [5D312742]
Track 7 accurately ripped (confidence 4) [380C9548]
Track 8 accurately ripped (confidence 4) [7C2F3307]
Track 9 accurately ripped (confidence 4) [F18341C1]

All tracks accurately ripped

End of status report

[CUETools log; Date: 14.06.2017 19:41:20; Version: 2.1.4]
[CTDB TOCID: DzN6dufRJhmKuwZKHk44PbJW1Zc-] found.
Track | CTDB Status
1 | (17/20) Accurately ripped
2 | (19/20) Accurately ripped
3 | (20/20) Accurately ripped
4 | (19/20) Accurately ripped
5 | (20/20) Accurately ripped
6 | (19/20) Accurately ripped
7 | (19/20) Accurately ripped
8 | (20/20) Accurately ripped
9 | (20/20) Accurately ripped
[AccurateRip ID: 00149c28-009291e6-630ca409] found.
Track [ CRC | V2 ] Status
01 [af33a334|9040a928] (06+08/14) Accurately ripped
02 [b97d3823|f9cc5189] (06+09/15) Accurately ripped
03 [13c59c6a|46c6126d] (06+09/15) Accurately ripped
04 [b7559949|a0c6a88c] (06+09/15) Accurately ripped
05 [99da0870|9c388452] (06+09/15) Accurately ripped
06 [5d312742|d454255d] (06+09/15) Accurately ripped
07 [380c9548|8e9c0bad] (06+09/15) Accurately ripped
08 [7c2f3307|5d788f68] (06+09/15) Accurately ripped
09 [f18341c1|a111876b] (06+09/15) Accurately ripped

Track Peak [ CRC32 ] [W/O NULL] [ LOG ]
– 100,0 [F6425168] [24FEAF1E] CRC32
01 100,0 [226B4F08] [40A1843A]
02 99,9 [FCD2BE81] [EAFDF5E4]
03 77,2 [9B4662D0] [2412147F]
04 99,9 [8D13030E] [A0E956A0]
05 93,5 [A63E89E1] [D36FC008]
06 99,8 [FB4F3EAF] [00FEBD2C]
07 99,9 [B04E6F24] [E6311E1D]
08 99,9 [12BB52F7] [20FC26A1]
09 100,0 [61164D03] [AED17DB9]

foobar2000 1.2 / Dynamic Range Meter 1.1.1
log date: 2017-06-14 20:22:07

––––––––––––––––––––––––––––––––––––––––
Analyzed: Nena / Willst du mit mir gehn (CD 2)
––––––––––––––––––––––––––––––––––––––––

DR Peak RMS Duration Track
––––––––––––––––––––––––––––––––––––––––
DR8 0.00 dB -9.52 dB 9:05 01-Ja kann man denn da ueberhaupt was machen / Ich will was Neues
DR8 0.00 dB -9.94 dB 7:57 02-Es ist noch nicht zu spaet / Das ist der Anfang
DR7 -2.24 dB -10.21 dB 3:15 03-Ohne Liebe bin ich nichts
DR7 0.00 dB -9.91 dB 11:06 04-Machs doch
DR9 -0.58 dB -11.93 dB 3:40 05-Hey Pauli ein neuer Ton
DR7 -0.01 dB -9.05 dB 4:40 06-Wenn die Sonne scheint
DR8 0.00 dB -8.98 dB 3:48 07-Das vertraegt sich nicht mit uns
DR8 0.00 dB -10.47 dB 6:39 08-Hochzeit je t'aime
DR9 0.00 dB -11.48 dB 3:47 09-Die Tuer geht zu
––––––––––––––––––––––––––––––––––––––––

Number of tracks: 9
Official DR value: DR8

Samplerate: 44100 Hz
Channels: 2
Bits per sample: 16
Bitrate: 932 kbps
Codec: FLAC
================================================================================




Nena - Solo Albums Collection 2001-2012 (11CD) [Re-Up]

Nena - Cover Me (2007) 2CDs
EAC | FLAC | Image (Cue&Log) ~ 855 Mb | Mp3 (CBR320) ~ 290 Mb
Label: Warner | # 5051442-2716-2-1 | 02:07:04 | Scans ~ 43 Mb

Two years in the making, Cover Me is Nena's "double helping" of cover versions, taking in an hour-long history tour of Anglo-American songs on one CD, and over an hour of delving into the (often more recent) German music landscape on the other. Nena's original idea was to take a break from her own songwriting and interpret a number of songs that inspired her to become a singer during the '70s (and provided her with emotional shelter, hence the album title). The impressive first third of the English album goes straight for Rolling Stones and Bob Dylan classics, "The Last Time" and "It's All Over Now Baby Blue" bouncing along at a slightly livelier pace than the originals and "She's a Rainbow" blazing with sweetness and color, then things slow right down to a meander through Mazzy Star's "Fade Into You," which leads into the stylistically uneven middle third. Uneven also because the songs here chosen from the '90s can't really compete with the rock-solid classics from further back that hold this half of the project together. (By the way, don't worry – no German accent anywhere, another of Nena's talents!) Probably the biggest surprise is that Nena manages to pull off the feat of tackling "Blowin' in the Wind" while seriously updating it to fit into louder and less hopeful times, thus proving that she indeed knows a thing or two about new wave coarseness, even though the bulk of Cover Me proves how rooted she is in the hopeful, ambitious culture of the '60s. And the '70s, for that matter: David Bowie's "Starman" and "Heroes" (the latter on the German CD) cover both poles of that decade's euphoric and downtrodden phases. The last third impresses most, with a classy 'n' sassy short sharp version of "Big Yellow Taxi," a slinky but almost faithful rendering of the mighty "Children of the Revolution" (not fixing what ain't broke!), and ending with the solemn trio of "After the Goldrush," "Us and Them," and Peter Gabriel's more recent (heavy but intricate) masterpiece on inner demons, "Darkness."

Darkness being a leitmotif of Nena's releases this decade, the selections on the German CD indeed tend to pull the listener to the dark side, be it via the classic German new wave urgency of "Eiszeit" ("Ice Age"), or the remarkable dark party bounce of the irresistible "Remmi Demmi" (originating in this very decade). Much of the rest is, however, left to balladry of various sorts, some of it pastoral, some lighter hearted, but always emphatic. Especially for those who understand German, this half of the album is not necessarily an easy emotional ride. Climaxing in grand '60s orchestral jazz-tinged style, "Das Jahr 2000" ("The Year 2000") is excavated from Hildegard Knef's songbook, and the juxtaposition of the song's musings on what the (then) future would hold and our current knowledge of how things actually turned out makes for a surprising and thoughtful (and elegantly beautiful) ending. It also relates straight back to the sentiment of the only new non-cover song, at the beginning of the album, "Mach Die Augen Auf," a wake up call to "open our eyes" – (another of those '60s traditions, but embedded here in a spaced out '70s/'90s rock vibe). Throughout the broad landscape of the album then, Nena's hope seems to be that listeners might also find a sense of shelter from the songs she's selected here.

Alan Severa, Allmusic.com

Tracklist:

CD1:

01. Mach die Augen auf (3:26)
02. Eiszeit (2:54)
03. Der Sheriff (5:13)
04. Mein Weg ist mein Weg (4:38)
05. Helden (4:22)
06. Ich werde dich lieben (2:48)
07. Remmidemmi (4:21)
08. Fuer alle, die (3:21)
09. Winter Sommer (3:46)
10. Astronaut (5:30)
11. Ein Lied (4:42)
12. Schoen von hinten (2:49)
13. Wir bauen eine neue Stadt (2:19)
14. In den tiefen dunklen Gaengen der Vergangenheit (5:13)
15. Die Kinder Deiner Kinder (3:51)
16. Fuer Dich tu ich fast alles (3:24)
17. Das Jahr 2000 (4:02)

CD2:

01. The last time (3:45)
02. It's all over now baby blue (3:17)
03. She's like a rainbow (3:14)
04. Fade into you (5:08)
05. Friday i'm in love (2:40)
06. Starman (3:47)
07. Blowin' in the wind (3:59)
08. Slipping away (3:56)
09. Sexy boy (4:31)
10. Big yellow taxi (2:36)
11. Children of the revolution (3:31)
12. After the goldrush (6:31)
13. Us and them (7:04)
14. Darkness (6:25)


Exact Audio Copy V0.99 prebeta 5 from 4. May 2009

EAC extraction logfile from 15. November 2010, 10:45

Nena / Cover Me (CD 1)

Used drive : HL-DT-STDVDRAM_GSA-T20N Adapter: 0 ID: 0

Read mode : Secure
Utilize accurate stream : Yes
Defeat audio cache : Yes
Make use of C2 pointers : No

Read offset correction : 667
Overread into Lead-In and Lead-Out : No
Fill up missing offset samples with silence : Yes
Delete leading and trailing silent blocks : No
Null samples used in CRC calculations : Yes
Used interface : Native Win32 interface for Win NT & 2000

Used output format : User Defined Encoder
Selected bitrate : 1024 kBit/s
Quality : High
Add ID3 tag : No
Command line compressor : C:\Program Files\Exact Audio Copy\Flac\flac.exe
Additional command line options : -8 -V %s


TOC of the extracted CD

Track | Start | Length | Start sector | End sector
––––––––––––––––––––––––––––-
1 | 0:00.00 | 3:25.70 | 0 | 15444
2 | 3:25.70 | 2:54.06 | 15445 | 28500
3 | 6:20.01 | 5:12.42 | 28501 | 51942
4 | 11:32.43 | 4:37.69 | 51943 | 72786
5 | 16:10.37 | 4:22.12 | 72787 | 92448
6 | 20:32.49 | 2:47.69 | 92449 | 105042
7 | 23:20.43 | 4:20.60 | 105043 | 124602
8 | 27:41.28 | 3:20.64 | 124603 | 139666
9 | 31:02.17 | 3:45.65 | 139667 | 156606
10 | 34:48.07 | 5:30.19 | 156607 | 181375
11 | 40:18.26 | 4:41.64 | 181376 | 202514
12 | 45:00.15 | 2:49.12 | 202515 | 215201
13 | 47:49.27 | 2:19.06 | 215202 | 225632
14 | 50:08.33 | 5:13.24 | 225633 | 249131
15 | 55:21.57 | 3:50.74 | 249132 | 266455
16 | 59:12.56 | 3:24.12 | 266456 | 281767
17 | 62:36.68 | 4:01.52 | 281768 | 299894


Range status and errors

Selected range

Filename C:\Music\Nena - Cover Me (CD 1).wav

Peak level 98.8 %
Range quality 100.0 %
Test CRC F64A26CF
Copy CRC F64A26CF
Copy OK

No errors occurred


AccurateRip summary

Track 1 accurately ripped (confidence 23) [58C8C8EB]
Track 2 accurately ripped (confidence 23) [BC0524BE]
Track 3 accurately ripped (confidence 22) [8CBF2AC0]
Track 4 accurately ripped (confidence 23) [DFF83901]
Track 5 accurately ripped (confidence 23) [B75B1CA9]
Track 6 accurately ripped (confidence 23) [919A2546]
Track 7 accurately ripped (confidence 23) [DBB6FE64]
Track 8 accurately ripped (confidence 23) [682A0C60]
Track 9 accurately ripped (confidence 23) [B0FA4696]
Track 10 accurately ripped (confidence 23) [734B1512]
Track 11 accurately ripped (confidence 23) [E98C4EBD]
Track 12 accurately ripped (confidence 23) [B2627DB5]
Track 13 accurately ripped (confidence 23) [96B6BFD4]
Track 14 accurately ripped (confidence 23) [4A456E2F]
Track 15 accurately ripped (confidence 23) [E31D4429]
Track 16 accurately ripped (confidence 22) [D84D225D]
Track 17 accurately ripped (confidence 22) [9B43698A]

All tracks accurately ripped

End of status report

[CUETools log; Date: 14.06.2017 19:41:36; Version: 2.1.4]
[CTDB TOCID: kF..VR7AK1khGZb3ZCvyXw6JhCU-] found.
Track | CTDB Status
1 | (52/55) Accurately ripped
2 | (54/55) Accurately ripped
3 | (54/55) Accurately ripped
4 | (54/55) Accurately ripped
5 | (55/55) Accurately ripped
6 | (54/55) Accurately ripped
7 | (54/55) Accurately ripped
8 | (54/55) Accurately ripped
9 | (54/55) Accurately ripped
10 | (54/55) Accurately ripped
11 | (54/55) Accurately ripped
12 | (54/55) Accurately ripped
13 | (54/55) Accurately ripped
14 | (52/55) Accurately ripped
15 | (52/55) Accurately ripped
16 | (53/55) Accurately ripped
17 | (51/55) Accurately ripped
[AccurateRip ID: 0029561e-020c6aef-d80f9e11] found.
Track [ CRC | V2 ] Status
01 [58c8c8eb|f9bef9dc] (28+31/59) Accurately ripped
02 [bc0524be|563d1447] (28+30/58) Accurately ripped
03 [8cbf2ac0|04bd1bf0] (26+31/57) Accurately ripped
04 [dff83901|d57778ee] (27+31/58) Accurately ripped
05 [b75b1ca9|4581a3f6] (28+31/59) Accurately ripped
06 [919a2546|647c5908] (28+31/59) Accurately ripped
07 [dbb6fe64|f13c082b] (27+31/58) Accurately ripped
08 [682a0c60|ec12c26e] (27+31/58) Accurately ripped
09 [b0fa4696|c92aeac8] (27+31/58) Accurately ripped
10 [734b1512|461a61e0] (27+31/58) Accurately ripped
11 [e98c4ebd|2deed559] (27+31/58) Accurately ripped
12 [b2627db5|d2486947] (27+31/58) Accurately ripped
13 [96b6bfd4|43f204b3] (27+31/58) Accurately ripped
14 [4a456e2f|701b43f5] (27+31/58) Accurately ripped
15 [e31d4429|a4d2e434] (27+31/58) Accurately ripped
16 [d84d225d|53680429] (26+31/57) Accurately ripped
17 [9b43698a|b645c493] (26+31/57) Accurately ripped

Track Peak [ CRC32 ] [W/O NULL] [ LOG ]
– 98,8 [F64A26CF] [17D54961] CRC32
01 98,8 [4F1DD966] [84843925]
02 98,8 [D01CC8A9] [FAB85522]
03 98,8 [D81C0875] [667F7565]
04 98,8 [927C7A15] [DF9EFF9B]
05 98,8 [4D47843B] [78B99E26]
06 98,7 [E8E30D15] [446A44AF]
07 98,8 [37889376] [ABCDCEC4]
08 98,8 [8E59E69E] [60633952]
09 98,8 [EE7F42AD] [FD2AA838]
10 98,8 [7DD6BEC9] [2C2EEE24]
11 98,8 [92C03C04] [E09EA4C8]
12 98,8 [2C1CEB8C] [3F055B1E]
13 98,8 [EBA2A6EE] [9B65C0A3]
14 98,8 [4AD6F1B9] [7B45BD10]
15 98,8 [8EC53F57] [D814355D]
16 98,8 [28C666A4] [FEA1C3A4]
17 98,8 [EA4F78D2] [CF64619F]

foobar2000 1.2 / Dynamic Range Meter 1.1.1
log date: 2017-06-14 20:19:48

––––––––––––––––––––––––––––––––––––––––
Analyzed: Nena / Cover Me (CD 1)
––––––––––––––––––––––––––––––––––––––––

DR Peak RMS Duration Track
––––––––––––––––––––––––––––––––––––––––
DR6 -0.10 dB -9.58 dB 3:26 01-Mach die Augen auf
DR6 -0.10 dB -7.32 dB 2:54 02-Eiszeit
DR8 -0.10 dB -9.02 dB 5:13 03-Der Sheriff
DR6 -0.10 dB -8.42 dB 4:38 04-Mein Weg ist mein Weg
DR6 -0.10 dB -8.47 dB 4:22 05-Helden
DR6 -0.11 dB -8.35 dB 2:48 06-Ich werde dich lieben
DR4 -0.10 dB -6.22 dB 4:21 07-Remmidemmi
DR7 -0.10 dB -9.30 dB 3:21 08-Fuer alle, die
DR9 -0.10 dB -11.70 dB 3:46 09-Winter Sommer
DR5 -0.10 dB -7.02 dB 5:30 10-Astronaut
DR5 -0.10 dB -8.24 dB 4:42 11-Ein Lied
DR7 -0.10 dB -8.80 dB 2:49 12-Schoen von hinten
DR3 -0.10 dB -6.45 dB 2:19 13-Wir bauen eine neue Stadt
DR9 -0.10 dB -11.76 dB 5:13 14-In den tiefen dunklen Gaengen der Vergangenheit
DR6 -0.10 dB -8.30 dB 3:51 15-Die Kinder Deiner Kinder
DR8 -0.10 dB -9.07 dB 3:24 16-Fuer Dich tu ich fast alles
DR5 -0.10 dB -7.29 dB 4:02 17-Das Jahr 2000
––––––––––––––––––––––––––––––––––––––––

Number of tracks: 17
Official DR value: DR6

Samplerate: 44100 Hz
Channels: 2
Bits per sample: 16
Bitrate: 930 kbps
Codec: FLAC
================================================================================


Exact Audio Copy V0.99 prebeta 5 from 4. May 2009

EAC extraction logfile from 15. November 2010, 11:21

Nena / Cover Me (CD 2)

Used drive : HL-DT-STDVDRAM_GSA-T20N Adapter: 0 ID: 0

Read mode : Secure
Utilize accurate stream : Yes
Defeat audio cache : Yes
Make use of C2 pointers : No

Read offset correction : 667
Overread into Lead-In and Lead-Out : No
Fill up missing offset samples with silence : Yes
Delete leading and trailing silent blocks : No
Null samples used in CRC calculations : Yes
Used interface : Native Win32 interface for Win NT & 2000

Used output format : User Defined Encoder
Selected bitrate : 1024 kBit/s
Quality : High
Add ID3 tag : No
Command line compressor : C:\Program Files\Exact Audio Copy\Flac\flac.exe
Additional command line options : -8 -V %s


TOC of the extracted CD

Track | Start | Length | Start sector | End sector
––––––––––––––––––––––––––––-
1 | 0:00.00 | 3:44.52 | 0 | 16851
2 | 3:44.52 | 3:16.47 | 16852 | 31598
3 | 7:01.24 | 3:14.02 | 31599 | 46150
4 | 10:15.26 | 5:08.00 | 46151 | 69250
5 | 15:23.26 | 2:40.18 | 69251 | 81268
6 | 18:03.44 | 3:47.28 | 81269 | 98321
7 | 21:50.72 | 3:58.39 | 98322 | 116210
8 | 25:49.36 | 3:56.00 | 116211 | 133910
9 | 29:45.36 | 4:31.25 | 133911 | 154260
10 | 34:16.61 | 2:36.31 | 154261 | 165991
11 | 36:53.17 | 3:31.23 | 165992 | 181839
12 | 40:24.40 | 6:31.31 | 181840 | 211195
13 | 46:55.71 | 7:04.00 | 211196 | 242995
14 | 53:59.71 | 6:25.25 | 242996 | 271895


Range status and errors

Selected range

Filename C:\Music\Nena - Cover Me (CD 2).wav

Peak level 98.8 %
Range quality 100.0 %
Test CRC 9F91DD72
Copy CRC 9F91DD72
Copy OK

No errors occurred


AccurateRip summary

Track 1 accurately ripped (confidence 23) [14FE3300]
Track 2 accurately ripped (confidence 24) [F8040DA2]
Track 3 accurately ripped (confidence 24) [7A043D31]
Track 4 accurately ripped (confidence 24) [48D2F885]
Track 5 accurately ripped (confidence 24) [491FEB90]
Track 6 accurately ripped (confidence 24) [D5FC71DA]
Track 7 accurately ripped (confidence 24) [897DE9A5]
Track 8 accurately ripped (confidence 24) [CE0624FB]
Track 9 accurately ripped (confidence 24) [67CFC045]
Track 10 accurately ripped (confidence 24) [144CEFFB]
Track 11 accurately ripped (confidence 24) [60C47739]
Track 12 accurately ripped (confidence 24) [3B43451D]
Track 13 accurately ripped (confidence 24) [1F6AF031]
Track 14 accurately ripped (confidence 24) [FFC54F6C]

All tracks accurately ripped

End of status report

[CUETools log; Date: 14.06.2017 19:41:52; Version: 2.1.4]
[CTDB TOCID: ST1Ez54s3xOKvcgA7bdZqPD8sZ8-] found.
Track | CTDB Status
1 | (59/64) Accurately ripped
2 | (61/64) Accurately ripped
3 | (62/64) Accurately ripped
4 | (62/64) Accurately ripped
5 | (62/64) Accurately ripped
6 | (62/64) Accurately ripped
7 | (62/64) Accurately ripped
8 | (62/64) Accurately ripped
9 | (62/64) Accurately ripped
10 | (62/64) Accurately ripped
11 | (62/64) Accurately ripped
12 | (61/64) Accurately ripped
13 | (61/64) Accurately ripped
14 | (59/64) Accurately ripped
[AccurateRip ID: 001bcc33-012d4f5a-ae0e290e] found.
Track [ CRC | V2 ] Status
01 [14fe3300|ff884408] (29+37/66) Accurately ripped
02 [f8040da2|f6def30a] (30+37/67) Accurately ripped
03 [7a043d31|e5168570] (30+37/67) Accurately ripped
04 [48d2f885|62292409] (29+37/66) Accurately ripped
05 [491feb90|0a4cfcfa] (30+37/67) Accurately ripped
06 [d5fc71da|3b78e36b] (29+37/66) Accurately ripped
07 [897de9a5|6c9ef853] (29+37/66) Accurately ripped
08 [ce0624fb|105b6d34] (29+37/66) Accurately ripped
09 [67cfc045|6d10c65c] (29+37/66) Accurately ripped
10 [144ceffb|507aa872] (30+37/67) Accurately ripped
11 [60c47739|0534d7b5] (30+37/67) Accurately ripped
12 [3b43451d|bb103c3a] (29+37/66) Accurately ripped
13 [1f6af031|0283f901] (29+37/66) Accurately ripped
14 [ffc54f6c|6dce0381] (29+37/66) Accurately ripped

Track Peak [ CRC32 ] [W/O NULL] [ LOG ]
– 98,8 [9F91DD72] [DF269A22] CRC32
01 98,8 [1A4B6B88] [9D2F78FE]
02 98,8 [6C6E76DC] [696FB105]
03 98,8 [D1427332] [D55EF660]
04 98,8 [907F15AA] [7ACBE570]
05 98,8 [2A6241BB] [8BD2EED6]
06 98,8 [970B23C5] [02D18546]
07 98,8 [23EFD257] [4A8B1D75]
08 98,8 [A0EA6E55] [94A3EC48]
09 98,8 [9D1B6C29] [6DE75EDE]
10 98,8 [81E0ADCE] [674961D8]
11 98,8 [5A93BEC3] [C55EC1D2]
12 98,8 [D5FB771F] [ABFCA387]
13 98,8 [1FF2C701] [1E7E0BED]
14 98,8 [2C8BA258] [7D13B2E8]

foobar2000 1.2 / Dynamic Range Meter 1.1.1
log date: 2017-06-14 20:21:10

––––––––––––––––––––––––––––––––––––––––
Analyzed: Nena / Cover Me (CD 2)
––––––––––––––––––––––––––––––––––––––––

DR Peak RMS Duration Track
––––––––––––––––––––––––––––––––––––––––
DR6 -0.10 dB -7.79 dB 3:45 01-The last time
DR4 -0.10 dB -5.32 dB 3:17 02-It's all over now baby blue
DR5 -0.10 dB -6.56 dB 3:14 03-She's like a rainbow
DR7 -0.10 dB -8.00 dB 5:08 04-Fade into you
DR7 -0.10 dB -8.15 dB 2:40 05-Friday i'm in love
DR6 -0.10 dB -7.21 dB 3:47 06-Starman
DR6 -0.10 dB -7.43 dB 3:59 07-Blowin' in the wind
DR4 -0.10 dB -5.53 dB 3:56 08-Slipping away
DR6 -0.10 dB -7.51 dB 4:31 09-Sexy boy
DR7 -0.10 dB -7.85 dB 2:36 10-Big yellow taxi
DR6 -0.10 dB -8.05 dB 3:31 11-Children of the revolution
DR7 -0.10 dB -10.09 dB 6:31 12-After the goldrush
DR5 -0.10 dB -7.87 dB 7:04 13-Us and them
DR7 -0.10 dB -9.57 dB 6:25 14-Darkness
––––––––––––––––––––––––––––––––––––––––

Number of tracks: 14
Official DR value: DR6

Samplerate: 44100 Hz
Channels: 2
Bits per sample: 16
Bitrate: 954 kbps
Codec: FLAC
================================================================================




Nena - Solo Albums Collection 2001-2012 (11CD) [Re-Up]

Nena - Made In Germany (2009)
EAC | FLAC | Image (Cue&Log) ~ 430 Mb | Mp3 (CBR320) ~ 163 Mb
Label: BMG/Laugh & Peas | # CD31000 | 01:00:19 | Scans included

The album title sure makes you wonder: Made in Germany? That could stand for all kinds of concepts or angles. (By the way, unlike half of the preceding Cover Me album, this one is not sung in English but, as usual, in German!) Nothing too intellectual or conceptual at all, in fact, the title track just intends to be a feel-good statement about where you come from and where you feel at home, in Nena's case, of course, Germany. End of story. (The sound? By turns romantic, dark, forceful, comparable in atmosphere to "Atomic" by Blondie.) Actually, though, it's no mean feat to write a catchy, unproblematic, feel-good song about a country that's been dissected by countless (and justified) highbrow ponderings concerning its role in history. Nena pulls it off, though, and puts it in the midst of an album that sees her return to simple pleasures all around, which is what these songs are basically all about. Euphoria is the main theme throughout. It zaps right in with the powerful "SchönSchönSchön," bouncing along on the "Green Onions" groove with some synth stabs and some Duane Eddy guitar for good measure. Nena's voice comes on full and strong (as throughout this album), singing about the pleasures of "you and me" and, basically, the thrill of it all, plain and simple. It doesn't stop there; most of the first half of the album continues on that theme, but other subjects also start creeping in, and in the second half the mood shifts from happy-go-lucky to somber and philosophical (all the while keeping things light and lucid, nevertheless). The simplicity is the big surprise here, after a rather ambitious decade of branching out into realms of music she hadn't attempted before, Nena obviously felt more like going into holiday mode this time. A bit of a "spiritual holiday," one could call it, though, because the lyrics are laced with all kinds of references to "what it all might mean" (love, time, life, separation, togetherness, joy, pain) but the language stays simple, often even a bit childlike.

Nena is, of course, no stranger to children's songs. This album was made after the children's album Himmel, Sonne, Regen und Wind. With hindsight, that album was remarkable for the exquisite care that obviously went into the (very natural) quality of the sound. All the more puzzling is the general tendency of the production on Made in Germany, which generally has a slightly synthetic feel to it. It's not an ideal fit for all the songs (except for a few in the first half that lamentably tend toward a kind of '80s nostalgia sound, quite untypical of Nena's usual style spectrum, and not the strongest material here). Moreover, Nena's touring band is strangely not the main "sound carrier" here – many of the instruments were played by Uwe Fahrenkrog-Petersen, Derek von Krogh, and Reinhold Heil (all of them professional keyboarders), who, together with Nena, also produced the album (and co-wrote most of it). So, maybe a case of too many cooks (of the same kind?). That said, it's still an enjoyable album with a number of highlights and stylistic flavors. Apart from the opener and the title track (as described), first single "Wir Sind Wahr" (We're for Real) is a very welcoming, grand, and elegantly beautiful song, a poetic highlight of the euphoric strand of the album. "Ich Bin Hyperaktiv" (I'm Hyperactive) speed rocks its way forward to debunk the concept of the "hyperactive child" being a medical condition in need of treatment. "In Meinem Leben" (In My Life) provides a touching glimpse of autobiographical thoughts on Nena's life so far. "Schmerzen" (Pain) has a meditative, Indian undercurrent to it; "Ganz Viel Zeit" (Lots of Time), with Nena's 19-year-old son Sakias on (laid-back and soulful) lead vocals for the first time, continues the album's gradual elegant "comedown" vibe in the last quarter. This leads into the final "Nachts Wenn Es Warm Ist" (At Night When It's Warm), a Thommie Bayer song reflecting on the feelings of separation and reunion that people experience at railway stations. An unexpectedly simple, straight-ahead album, both lighthearted and thoughtful in equal measure.

Alan Severa, Allmusic.com

Tracklist:

01. SchoenSchoenSchoen (3:50)
02. Du bist so gut fuer mich (4:28)
03. Ich bin hyperaktiv (3:46)
04. Dreh dich (3:15)
05. Geheimnis (4:14)
06. Du hast dich entschieden (4:13)
07. Wir sind wahr (5:41)
08. Made in Germany (3:44)
09. In meinem Leben (5:39)
10. Es gibt keine Sicherheit (3:25)
11. Schmerzen (5:33)
12. Ganz viel Zeit (6:41)
13. Nachts wenn es warm ist (5:49)


Exact Audio Copy V0.99 prebeta 5 from 4. May 2009

EAC extraction logfile from 30. October 2010, 15:04

Nena / Made in Germany

Used drive : TSSTcorpCD/DVDW SH-S182M Adapter: 0 ID: 0

Read mode : Secure
Utilize accurate stream : Yes
Defeat audio cache : Yes
Make use of C2 pointers : No

Read offset correction : 6
Overread into Lead-In and Lead-Out : No
Fill up missing offset samples with silence : Yes
Delete leading and trailing silent blocks : No
Null samples used in CRC calculations : Yes
Used interface : Installed external ASPI interface

Used output format : User Defined Encoder
Selected bitrate : 768 kBit/s
Quality : High
Add ID3 tag : No
Command line compressor : C:\Program Files\Exact Audio Copy\FLAC\FLAC.EXE
Additional command line options : -8 -V %s


TOC of the extracted CD

Track | Start | Length | Start sector | End sector
––––––––––––––––––––––––––––-
1 | 0:00.00 | 3:50.17 | 0 | 17266
2 | 3:50.17 | 4:27.45 | 17267 | 37336
3 | 8:17.62 | 3:46.03 | 37337 | 54289
4 | 12:03.65 | 3:15.36 | 54290 | 68950
5 | 15:19.26 | 4:14.17 | 68951 | 88017
6 | 19:33.43 | 4:12.74 | 88018 | 106991
7 | 23:46.42 | 5:41.21 | 106992 | 132587
8 | 29:27.63 | 3:44.07 | 132588 | 149394
9 | 33:11.70 | 5:38.58 | 149395 | 174802
10 | 38:50.53 | 3:25.00 | 174803 | 190177
11 | 42:15.53 | 5:33.23 | 190178 | 215175
12 | 47:49.01 | 6:40.50 | 215176 | 245225
13 | 54:29.51 | 5:49.20 | 245226 | 271420


Range status and errors

Selected range

Filename C:\Music\Nena - Made in Germany.wav

Peak level 99.9 %
Range quality 100.0 %
Test CRC A0E8628C
Copy CRC A0E8628C
Copy OK

No errors occurred


AccurateRip summary

Track 1 accurately ripped (confidence 39) [C476B7F0]
Track 2 accurately ripped (confidence 39) [0444D5C3]
Track 3 accurately ripped (confidence 39) [1A57D4E6]
Track 4 accurately ripped (confidence 38) [D2F36A32]
Track 5 accurately ripped (confidence 38) [A503A4B8]
Track 6 accurately ripped (confidence 39) [773309E2]
Track 7 accurately ripped (confidence 39) [159ACAEE]
Track 8 accurately ripped (confidence 39) [0F133435]
Track 9 accurately ripped (confidence 39) [4BB4528B]
Track 10 accurately ripped (confidence 39) [811A1292]
Track 11 accurately ripped (confidence 39) [6F3B5DB1]
Track 12 accurately ripped (confidence 39) [1D5E26AD]
Track 13 accurately ripped (confidence 38) [925FE2A2]

All tracks accurately ripped

End of status report

[CUETools log; Date: 14.06.2017 19:42:07; Version: 2.1.4]
[CTDB TOCID: LK9JFqlU2n1yDAtpeOomMhtdhhY-] found.
Track | CTDB Status
1 | (120/120) Accurately ripped
2 | (119/120) Accurately ripped
3 | (120/120) Accurately ripped
4 | (120/120) Accurately ripped
5 | (120/120) Accurately ripped
6 | (120/120) Accurately ripped
7 | (119/120) Accurately ripped
8 | (120/120) Accurately ripped
9 | (120/120) Accurately ripped
10 | (120/120) Accurately ripped
11 | (120/120) Accurately ripped
12 | (119/120) Accurately ripped
13 | (120/120) Accurately ripped
[AccurateRip ID: 001aba5a-010f9e00-bd0e220d] found.
Track [ CRC | V2 ] Status
01 [c476b7f0|36cf44e8] (065+054/119) Accurately ripped
02 [0444d5c3|2c614951] (064+054/118) Accurately ripped
03 [1a57d4e6|751c1b96] (065+054/119) Accurately ripped
04 [d2f36a32|f0f29f22] (064+054/118) Accurately ripped
05 [a503a4b8|5c1e9975] (063+054/117) Accurately ripped
06 [773309e2|16f2bf8d] (065+054/119) Accurately ripped
07 [159acaee|8827159e] (064+053/117) Accurately ripped
08 [0f133435|7c52365d] (064+054/118) Accurately ripped
09 [4bb4528b|314b74d1] (063+055/118) Accurately ripped
10 [811a1292|8ce8b768] (064+054/118) Accurately ripped
11 [6f3b5db1|d8155955] (063+054/117) Accurately ripped
12 [1d5e26ad|03463533] (064+054/118) Accurately ripped
13 [925fe2a2|a3af3396] (063+054/117) Accurately ripped

Track Peak [ CRC32 ] [W/O NULL] [ LOG ]
– 99,9 [A0E8628C] [AF1D7175] CRC32
01 99,9 [ED9799D5] [DD80B838]
02 98,7 [00B4D45A] [3798B2EA]
03 98,8 [3266CEA5] [08AEF244]
04 98,8 [0D7E28D1] [B611507B]
05 98,8 [A8732B8D] [6FC4C79E]
06 98,7 [0A7575A1] [01D86DBB]
07 98,8 [5F1E00E5] [BE645B6B]
08 98,7 [4B5C5286] [6741B195]
09 98,7 [EFE4FAAC] [F3385309]
10 98,7 [4A74E20F] [DE8AF61D]
11 98,7 [A99DF32E] [B9BAE9CD]
12 99,6 [43898F81] [FB00BD51]
13 98,7 [6B834BDA] [712F8269]

foobar2000 1.2 / Dynamic Range Meter 1.1.1
log date: 2017-06-14 20:18:27

––––––––––––––––––––––––––––––––––––––––
Analyzed: Nena / Made in Germany
––––––––––––––––––––––––––––––––––––––––

DR Peak RMS Duration Track
––––––––––––––––––––––––––––––––––––––––
DR6 -0.01 dB -7.42 dB 3:50 01-SchoenSchoenSchoen
DR6 -0.11 dB -7.31 dB 4:28 02-Du bist so gut fuer mich
DR6 -0.10 dB -7.03 dB 3:46 03-Ich bin hyperaktiv
DR7 -0.10 dB -7.87 dB 3:15 04-Dreh dich
DR7 -0.10 dB -9.08 dB 4:14 05-Geheimnis
DR6 -0.11 dB -8.35 dB 4:13 06-Du hast dich entschieden
DR6 -0.10 dB -7.43 dB 5:41 07-Wir sind wahr
DR7 -0.11 dB -8.36 dB 3:44 08-Made in Germany
DR9 -0.11 dB -10.39 dB 5:39 09-In meinem Leben
DR5 -0.11 dB -6.25 dB 3:25 10-Es gibt keine Sicherheit
DR6 -0.11 dB -7.13 dB 5:33 11-Schmerzen
DR7 -0.03 dB -9.41 dB 6:41 12-Ganz viel Zeit
DR6 -0.11 dB -9.49 dB 5:49 13-Nachts wenn es warm ist
––––––––––––––––––––––––––––––––––––––––

Number of tracks: 13
Official DR value: DR6

Samplerate: 44100 Hz
Channels: 2
Bits per sample: 16
Bitrate: 939 kbps
Codec: FLAC
================================================================================




Nena - Solo Albums Collection 2001-2012 (11CD) [Re-Up]

Nena - Made in Germany Live (2010) 2CDs
EAC | FLAC | Image (Cue&Log) ~ 1 Gb | Mp3 (CBR320) ~ 320 Mb
Label: BMG/Laugh & Peas | # CD31011 | Time: 02:20:01 | Scans ~ 78 Mb

Made In Germany Live is a two-CD live album by German pop singer Nena, released on 17 September 2010. It contains her live performance at Berlin on 24 April 2010, with bonus tracks from concert dates in 2009 and 2010 on the special edition of the album. The bonus tracks include two songs by Nena’s first band, The Stripes. Of the 27 tracks featured in the album, 11 were from the “Made in Germany” album which the concert tour was promoting. Of the remaining 16, ten are songs from the 1980s and six from the 2000s, leaving Nena’s work from the 1990s (the most productive decade of her solo career in terms of new material) completely unrepresented.

Tracklist:

CD1:

01. Made in Germany (5:10)
02. SchoenSchoenSchoen (4:22)
03. Nur getraeumt (6:12)
04. Lass die Leinen los (4:54)
05. Wunder geschehn (5:56)
06. Geheimnis (3:10)
07. Wir sind wahr (5:32)
08. Fragezeichen (4:27)
09. Tokyo (3:17)
10. Liebe ist (6:07)
11. Du bist so gut fuer mich (5:52)
12. Willst Du mit mir gehn (5:14)
13. Ich bin hyperaktiv (6:38)

CD2:

01. Ganz viel Zeit (7:15)
02. 99 Luftballons (4:23)
03. Leuchttum (7:04)
04. Schmerzen (5:41)
05. In meinem Leben (7:27)
06. Nachts wenn es warm ist (5:51)
07. Irgendwie, irgendwo, irgendwann (4:34)
08. Der Anfang (10:56)
09. Strangers (2:58)
10. Ecstacy (3:11)
11. Engel der Nacht (2:57)
12. Du hast dich entschieden (3:27)
13. Heute hab ich die Sonne mit dem Mond verwechselt (3:32)
14. Liebe isch… (3:55)


Exact Audio Copy V0.99 prebeta 5 from 4. May 2009

EAC extraction logfile from 23. October 2010, 5:05

Nena / Made in Germany Live (CD1)

Used drive : HL-DT-STDVDRAM_GSA-T20N Adapter: 0 ID: 0

Read mode : Secure
Utilize accurate stream : Yes
Defeat audio cache : Yes
Make use of C2 pointers : No

Read offset correction : 667
Overread into Lead-In and Lead-Out : No
Fill up missing offset samples with silence : Yes
Delete leading and trailing silent blocks : No
Null samples used in CRC calculations : Yes
Used interface : Native Win32 interface for Win NT & 2000

Used output format : User Defined Encoder
Selected bitrate : 1024 kBit/s
Quality : High
Add ID3 tag : No
Command line compressor : C:\Program Files\Exact Audio Copy\Flac\flac.exe
Additional command line options : -8 -V %s


TOC of the extracted CD

Track | Start | Length | Start sector | End sector
––––––––––––––––––––––––––––-
1 | 0:00.00 | 5:09.55 | 0 | 23229
2 | 5:09.55 | 4:22.04 | 23230 | 42883
3 | 9:31.59 | 6:11.68 | 42884 | 70776
4 | 15:43.52 | 4:53.61 | 70777 | 92812
5 | 20:37.38 | 5:55.40 | 92813 | 119477
6 | 26:33.03 | 3:09.64 | 119478 | 133716
7 | 29:42.67 | 5:32.18 | 133717 | 158634
8 | 35:15.10 | 4:27.16 | 158635 | 178675
9 | 39:42.26 | 3:17.00 | 178676 | 193450
10 | 42:59.26 | 6:06.40 | 193451 | 220940
11 | 49:05.66 | 5:51.39 | 220941 | 247304
12 | 54:57.30 | 5:14.37 | 247305 | 270891
13 | 60:11.67 | 6:38.11 | 270892 | 300752


Range status and errors

Selected range

Filename C:\Music\Nena - Made in Germany Live (CD1).wav

Peak level 100.0 %
Range quality 99.9 %
Test CRC 7191834E
Copy CRC 7191834E
Copy OK

No errors occurred


AccurateRip summary

Track 1 not present in database
Track 2 not present in database
Track 3 not present in database
Track 4 not present in database
Track 5 not present in database
Track 6 not present in database
Track 7 not present in database
Track 8 not present in database
Track 9 not present in database
Track 10 not present in database
Track 11 not present in database
Track 12 not present in database
Track 13 not present in database

None of the tracks are present in the AccurateRip database

End of status report

[CUETools log; Date: 14.06.2017 19:42:26; Version: 2.1.4]
[CTDB TOCID: UNBjUNYdQb2.KthxJa5Rk_XGU2o-] found.
Track | CTDB Status
1 | (25/25) Accurately ripped
2 | (25/25) Accurately ripped
3 | (25/25) Accurately ripped
4 | (25/25) Accurately ripped
5 | (23/25) Accurately ripped
6 | (25/25) Accurately ripped
7 | (25/25) Accurately ripped
8 | (25/25) Accurately ripped
9 | (25/25) Accurately ripped
10 | (25/25) Accurately ripped
11 | (25/25) Accurately ripped
12 | (25/25) Accurately ripped
13 | (25/25) Accurately ripped
[AccurateRip ID: 001f55b0-01391084-c50faa0d] found.
Track [ CRC | V2 ] Status
01 [c7345aee|6d116ec6] (04+10/14) Accurately ripped
02 [869a648a|3ab2d6f6] (04+10/14) Accurately ripped
03 [e2a48ab7|5f9eddcc] (04+10/14) Accurately ripped
04 [98885757|6f0dd94a] (04+10/14) Accurately ripped
05 [cfe672a6|fc9f7b1d] (04+10/14) Accurately ripped
06 [f87caa04|deebd21e] (04+10/14) Accurately ripped
07 [4bb633e0|a94b76d0] (04+10/14) Accurately ripped
08 [762c4dbf|013be63b] (04+10/14) Accurately ripped
09 [7531b5d0|a89cbe60] (04+10/14) Accurately ripped
10 [b696766d|93e7de94] (04+10/14) Accurately ripped
11 [cd795b0b|950bfd6a] (04+10/14) Accurately ripped
12 [ac48e746|6db3dd4f] (04+10/14) Accurately ripped
13 [7c82e86a|97554fc6] (04+10/14) Accurately ripped

Track Peak [ CRC32 ] [W/O NULL] [ LOG ]
– 100,0 [7191834E] [CA45A357] CRC32
01 100,0 [CC7D541F] [8E9CA61F]
02 100,0 [5125C16C] [4D7610A8]
03 100,0 [DFC30CC2] [362CBEED]
04 100,0 [2A968158] [1018DAD1]
05 100,0 [FE0D60EC] [5E3868DA]
06 100,0 [9D399FE3] [CBDE04C0]
07 100,0 [74AB11DF] [7757C499]
08 100,0 [8932DE43] [37BC4697]
09 100,0 [3801D10B] [3BD1B6E9]
10 100,0 [FBF1141C] [19EF2B58]
11 100,0 [C97B2181] [A296207A]
12 100,0 [0D31B5F1] [D2ED3FFC]
13 100,0 [CEE0669C] [3457F4D2]

foobar2000 1.2 / Dynamic Range Meter 1.1.1
log date: 2017-06-14 20:20:19

––––––––––––––––––––––––––––––––––––––––
Analyzed: Nena / Made in Germany Live (CD1)
––––––––––––––––––––––––––––––––––––––––

DR Peak RMS Duration Track
––––––––––––––––––––––––––––––––––––––––
DR7 0.00 dB -8.72 dB 5:10 01-Made in Germany
DR8 0.00 dB -8.36 dB 4:22 02-SchoenSchoenSchoen
DR7 0.00 dB -8.11 dB 6:12 03-Nur getraeumt
DR8 0.00 dB -10.19 dB 4:54 04-Lass die Leinen los
DR7 0.00 dB -9.44 dB 5:56 05-Wunder geschehn
DR8 0.00 dB -8.63 dB 3:10 06-Geheimnis
DR7 0.00 dB -8.71 dB 5:32 07-Wir sind wahr
DR6 0.00 dB -7.97 dB 4:27 08-Fragezeichen
DR7 0.00 dB -9.38 dB 3:17 09-Tokyo
DR7 0.00 dB -9.29 dB 6:07 10-Liebe ist
DR7 0.00 dB -8.38 dB 5:52 11-Du bist so gut fuer mich
DR6 0.00 dB -7.57 dB 5:14 12-Willst Du mit mir gehn
DR7 0.00 dB -8.52 dB 6:38 13-Ich bin hyperaktiv
––––––––––––––––––––––––––––––––––––––––

Number of tracks: 13
Official DR value: DR7

Samplerate: 44100 Hz
Channels: 2
Bits per sample: 16
Bitrate: 1018 kbps
Codec: FLAC
================================================================================


Exact Audio Copy V0.99 prebeta 5 from 4. May 2009

EAC extraction logfile from 23. October 2010, 5:45

Nena / Made in Germany Live (CD2)

Used drive : HL-DT-STDVDRAM_GSA-T20N Adapter: 0 ID: 0

Read mode : Secure
Utilize accurate stream : Yes
Defeat audio cache : Yes
Make use of C2 pointers : No

Read offset correction : 667
Overread into Lead-In and Lead-Out : No
Fill up missing offset samples with silence : Yes
Delete leading and trailing silent blocks : No
Null samples used in CRC calculations : Yes
Used interface : Native Win32 interface for Win NT & 2000

Used output format : User Defined Encoder
Selected bitrate : 1024 kBit/s
Quality : High
Add ID3 tag : No
Command line compressor : C:\Program Files\Exact Audio Copy\Flac\flac.exe
Additional command line options : -8 -V %s


TOC of the extracted CD

Track | Start | Length | Start sector | End sector
––––––––––––––––––––––––––––-
1 | 0:00.00 | 7:15.04 | 0 | 32628
2 | 7:15.04 | 4:23.24 | 32629 | 52377
3 | 11:38.28 | 7:03.54 | 52378 | 84156
4 | 18:42.07 | 5:40.70 | 84157 | 109726
5 | 24:23.02 | 7:27.33 | 109727 | 143284
6 | 31:50.35 | 5:50.52 | 143285 | 169586
7 | 37:41.12 | 4:34.28 | 169587 | 190164
8 | 42:15.40 | 10:55.56 | 190165 | 239345
9 | 53:11.21 | 2:58.24 | 239346 | 252719
10 | 56:09.45 | 3:10.50 | 252720 | 267019
11 | 59:20.20 | 2:56.69 | 267020 | 280288
12 | 62:17.14 | 3:27.17 | 280289 | 295830
13 | 65:44.31 | 3:31.59 | 295831 | 311714
14 | 69:16.15 | 3:55.18 | 311715 | 329357


Range status and errors

Selected range

Filename C:\Music\Nena - Made in Germany Live (CD2).wav

Peak level 100.0 %
Range quality 100.0 %
Test CRC 2924CCB2
Copy CRC 2924CCB2
Copy OK

No errors occurred


AccurateRip summary

Track 1 not present in database
Track 2 not present in database
Track 3 not present in database
Track 4 not present in database
Track 5 not present in database
Track 6 not present in database
Track 7 not present in database
Track 8 not present in database
Track 9 not present in database
Track 10 not present in database
Track 11 not present in database
Track 12 not present in database
Track 13 not present in database
Track 14 not present in database

None of the tracks are present in the AccurateRip database

End of status report

[CUETools log; Date: 14.06.2017 19:42:44; Version: 2.1.4]
[CTDB TOCID: et49vSR_gM2M7YNapbWr5Xw2oHs-] found.
Track | CTDB Status
1 | (23/23) Accurately ripped
2 | (23/23) Accurately ripped
3 | (23/23) Accurately ripped
4 | (23/23) Accurately ripped
5 | (23/23) Accurately ripped
6 | (23/23) Accurately ripped
7 | (23/23) Accurately ripped
8 | (23/23) Accurately ripped
9 | (23/23) Accurately ripped
10 | (23/23) Accurately ripped
11 | (23/23) Accurately ripped
12 | (23/23) Accurately ripped
13 | (23/23) Accurately ripped
14 | (23/23) Accurately ripped
[AccurateRip ID: 002a163f-01b7932c-c611270e] found.
Track [ CRC | V2 ] Status
01 [51502ea9|1671a06a] (04+10/14) Accurately ripped
02 [5a5a9beb|27c3a939] (04+10/14) Accurately ripped
03 [508e4fb2|1271cb7b] (04+10/14) Accurately ripped
04 [1695cc35|20ff7f63] (04+10/14) Accurately ripped
05 [bef05a64|f94a113a] (04+10/14) Accurately ripped
06 [318e02fb|9561a032] (04+10/14) Accurately ripped
07 [d4b85480|43294690] (04+10/14) Accurately ripped
08 [cef1f57c|fd55fd98] (04+10/14) Accurately ripped
09 [e1102bad|38ac205b] (04+10/14) Accurately ripped
10 [1c5963d1|3fb3aebf] (04+10/14) Accurately ripped
11 [ff686b24|61ffb8ed] (04+10/14) Accurately ripped
12 [c14714d0|759b7270] (04+10/14) Accurately ripped
13 [52aa5ddd|ea6a850e] (04+10/14) Accurately ripped
14 [a07ea85f|2363154b] (04+10/14) Accurately ripped

Track Peak [ CRC32 ] [W/O NULL] [ LOG ]
– 100,0 [2924CCB2] [445292C9] CRC32
01 100,0 [25971E57] [A431990B]
02 100,0 [6250A4A0] [C9BC9C43]
03 100,0 [EB7A5F91] [76AC23DF]
04 100,0 [E2777316] [758333F5]
05 100,0 [1B0483DE] [066D0235]
06 100,0 [3FD7CD09] [B9735FB5]
07 100,0 [6AEB3DE7] [26B46596]
08 100,0 [34C84F31] [5480E666]
09 100,0 [A75EFC24] [19AF71D5]
10 99,1 [BAAE906A] [71A64D02]
11 100,0 [D8A5965E] [D8704EA7]
12 100,0 [7375A785] [88A0EAB0]
13 100,0 [07B480DB] [07423CB0]
14 100,0 [A85FA9BB] [467E41BA]

foobar2000 1.2 / Dynamic Range Meter 1.1.1
log date: 2017-06-14 20:21:42

––––––––––––––––––––––––––––––––––––––––
Analyzed: Nena / Made in Germany Live (CD2)
––––––––––––––––––––––––––––––––––––––––

DR Peak RMS Duration Track
––––––––––––––––––––––––––––––––––––––––
DR7 0.00 dB -8.04 dB 7:15 01-Ganz viel Zeit
DR6 0.00 dB -7.56 dB 4:23 02-99 Luftballons
DR8 0.00 dB -9.67 dB 7:04 03-Leuchttum
DR7 0.00 dB -7.62 dB 5:41 04-Schmerzen
DR9 0.00 dB -10.53 dB 7:27 05-In meinem Leben
DR6 0.00 dB -8.17 dB 5:51 06-Nachts wenn es warm ist
DR7 0.00 dB -7.94 dB 4:34 07-Irgendwie, irgendwo, irgendwann
DR6 0.00 dB -8.20 dB 10:56 08-Der Anfang
DR9 0.00 dB -9.87 dB 2:58 09-Strangers
DR9 -0.07 dB -9.88 dB 3:11 10-Ecstacy
DR8 0.00 dB -9.01 dB 2:57 11-Engel der Nacht
DR6 0.00 dB -7.69 dB 3:27 12-Du hast dich entschieden
DR6 0.00 dB -8.36 dB 3:32 13-Heute hab ich die Sonne mit dem Mond verwechselt
DR9 0.00 dB -12.33 dB 3:55 14-Liebe isch…
––––––––––––––––––––––––––––––––––––––––

Number of tracks: 14
Official DR value: DR7

Samplerate: 44100 Hz
Channels: 2
Bits per sample: 16
Bitrate: 989 kbps
Codec: FLAC
================================================================================




Nena - Solo Albums Collection 2001-2012 (11CD) [Re-Up]

Nena - Du Bist Gut (2012) 2CD Deluxe Edition
EAC | FLAC | Tracks (Cue&Log) ~ 683 Mb | Mp3 (CBR320) ~ 251 Mb | Scans included
Label: Laugh & Peas/Lifestyle | # 4260177310203 | 01:46:48

Du bist gut (“You’re Good”) is the 16th studio album of the German pop singer Nena. The album was recorded in Iceland and released on 2 November 2012 by The Laugh and Peas Company, the record label run by Nena and her partner Philipp Palm. The cover artwork is designed by Nena’s daughter Larissa, and her son Sakias duets with her on a couple of tracks. The album peaked at #2 in the German album charts.

Du bist gut comprises one CD of 15 songs (14 original, 1 reworking of a 2001 album track), and the “deluxe bonus edition” has a second CD comprising studio reworkings and live performances of earlier recordings.

The album covers many of the themes running through Nena’s previous work, “Freiheit” (Freedom) and “Frieden” (Peace) being obvious examples. However it differs from many of its predecessors in that there are fewer fast songs and in “Ich habe dich verloren” (I have lost you) Nena writes an unremittingly bleak lyric, which is unusual for one so accustomed to put a positive spin on all sorts of setbacks and misfortune. As ever, Nena experiments with stylistic variations including the 7-minute synthpop title track and the acoustic guitar backed “Lautlos” (Silently) which intimately showcases her voice and carefully crafted enunciation like few others have in her 30-year career.

Tracklist:

CD1:

01. Das ist nicht alles (04:26)
02. Schmetterling (03:55)
03. Lied Nummer Eins (03:24)
04. Im Reich meiner Mitte (04:07)
05. Freiheit (04:57)
06. Besser gehts nicht (04:45)
07. Ich hör mir zu (04:59)
08. Wo ist mein Zuhause (03:58)
09. Goldene Zeit Goldenes Land (05:21)
10. Solange Du Dir Sorgen machst (03:21)
11. Lautlos (03:41)
12. Ich hab Dich verloren (05:21)
13. Deine Flügel brechen nicht (05:10)
14. Frieden (05:30)
15. Du bist gut (07:34)

CD2:

01. Weisses Schiff (Live in Berlin) (04:12)
02. Lichtarbeiter (Featuring Sakias Kerner) (05:17)
03. Liebe ist (Live im Studio, Hamburg) (03:42)
04. Schritt für Schritt (Live in Berlin) (05:21)
05. Wunder geschehn (Live in Berlin) (05:33)
06. Willst Du mit mir gehn (Live im Studio, Island) (04:12)
07. Neues Land (Live in Berlin) (04:18)
08. Ich bin die Liebe (Live im Studio, Island) (03:32)


Exact Audio Copy V1.0 beta 3 from 29. August 2011

EAC extraction logfile from 1. November 2012, 17:16

Nena / Du Bist Gut (Deluxe Edition) CD 1

Used drive : TSSTcorpCD/DVDW SH-S182M Adapter: 0 ID: 0

Read mode : Secure
Utilize accurate stream : Yes
Defeat audio cache : Yes
Make use of C2 pointers : No

Read offset correction : 6
Overread into Lead-In and Lead-Out : No
Fill up missing offset samples with silence : Yes
Delete leading and trailing silent blocks : No
Null samples used in CRC calculations : Yes
Used interface : Native Win32 interface for Win NT & 2000
Gap handling : Appended to previous track

Used output format : User Defined Encoder
Selected bitrate : 1024 kBit/s
Quality : High
Add ID3 tag : No
Command line compressor : C:\Program Files\Exact Audio Copy\Flac\flac.exe
Additional command line options : -8 -V -T "ARTIST=%artist%" -T "TITLE=%title%" -T "ALBUM=%albumtitle%" -T "DATE=%year%" -T "TRACKNUMBER=%tracknr%" -T "GENRE=%genre%" -T "PERFORMER=%albuminterpret%" -T "COMPOSER=%composer%" %source% -o %dest%


TOC of the extracted CD

Track | Start | Length | Start sector | End sector
––––––––––––––––––––––––––––-
1 | 0:00.00 | 4:26.13 | 0 | 19962
2 | 4:26.13 | 3:55.19 | 19963 | 37606
3 | 8:21.32 | 3:24.53 | 37607 | 52959
4 | 11:46.10 | 4:07.69 | 52960 | 71553
5 | 15:54.04 | 4:57.67 | 71554 | 93895
6 | 20:51.71 | 4:45.51 | 93896 | 115321
7 | 25:37.47 | 4:59.28 | 115322 | 137774
8 | 30:37.00 | 3:58.73 | 137775 | 155697
9 | 34:35.73 | 5:21.48 | 155698 | 179820
10 | 39:57.46 | 3:21.03 | 179821 | 194898
11 | 43:18.49 | 3:41.65 | 194899 | 211538
12 | 47:00.39 | 5:21.22 | 211539 | 235635
13 | 52:21.61 | 5:10.35 | 235636 | 258920
14 | 57:32.21 | 5:30.06 | 258921 | 283676
15 | 63:02.27 | 7:34.56 | 283677 | 317782


Track 1

Filename C:\Music\01 - Das ist nicht alles.wav

Pre-gap length 0:00:02.00

Peak level 97.6 %
Extraction speed 4.8 X
Track quality 100.0 %
Test CRC 70E0D5A5
Copy CRC 70E0D5A5
Track not present in AccurateRip database
Copy OK

Track 2

Filename C:\Music\02 - Schmetterling.wav

Peak level 97.7 %
Extraction speed 5.2 X
Track quality 100.0 %
Test CRC ED091660
Copy CRC ED091660
Track not present in AccurateRip database
Copy OK

Track 3

Filename C:\Music\03 - Lied Nummer Eins.wav

Pre-gap length 0:00:22.19

Peak level 97.8 %
Extraction speed 5.5 X
Track quality 100.0 %
Test CRC 770C66A3
Copy CRC 770C66A3
Track not present in AccurateRip database
Copy OK

Track 4

Filename C:\Music\04 - Im Reich meiner Mitte.wav

Peak level 97.7 %
Extraction speed 5.9 X
Track quality 100.0 %
Test CRC A93F5F25
Copy CRC A93F5F25
Track not present in AccurateRip database
Copy OK

Track 5

Filename C:\Music\05 - Freiheit.wav

Peak level 98.8 %
Extraction speed 6.4 X
Track quality 100.0 %
Test CRC 08B38EF5
Copy CRC 08B38EF5
Track not present in AccurateRip database
Copy OK

Track 6

Filename C:\Music\06 - Besser gehts nicht.wav

Peak level 97.7 %
Extraction speed 6.8 X
Track quality 100.0 %
Test CRC 187DA05F
Copy CRC 187DA05F
Track not present in AccurateRip database
Copy OK

Track 7

Filename C:\Music\07 - Ich hoer mir zu.wav

Pre-gap length 0:00:50.04

Peak level 98.8 %
Extraction speed 7.1 X
Track quality 100.0 %
Test CRC 306BCAD9
Copy CRC 306BCAD9
Track not present in AccurateRip database
Copy OK

Track 8

Filename C:\Music\08 - Wo ist mein Zuhause.wav

Pre-gap length 0:00:01.70

Peak level 97.7 %
Extraction speed 7.3 X
Track quality 100.0 %
Test CRC D470E130
Copy CRC D470E130
Track not present in AccurateRip database
Copy OK

Track 9

Filename C:\Music\09 - Goldene Zeit Goldenes Land.wav

Pre-gap length 0:00:04.19

Peak level 97.7 %
Extraction speed 7.8 X
Track quality 100.0 %
Test CRC 153E62B7
Copy CRC 153E62B7
Track not present in AccurateRip database
Copy OK

Track 10

Filename C:\Music\10 - Solange Du Dir Sorgen machst.wav

Peak level 97.5 %
Extraction speed 7.6 X
Track quality 100.0 %
Test CRC FEE840B4
Copy CRC FEE840B4
Track not present in AccurateRip database
Copy OK

Track 11

Filename C:\Music\11 - Lautlos.wav

Pre-gap length 0:00:02.09

Peak level 75.7 %
Extraction speed 7.9 X
Track quality 100.0 %
Test CRC 3DC1B35B
Copy CRC 3DC1B35B
Track not present in AccurateRip database
Copy OK

Track 12

Filename C:\Music\12 - Ich hab Dich verloren.wav

Pre-gap length 0:00:19.11

Peak level 98.8 %
Extraction speed 8.5 X
Track quality 100.0 %
Test CRC 7A2D5D41
Copy CRC 7A2D5D41
Track not present in AccurateRip database
Copy OK

Track 13

Filename C:\Music\13 - Deine Fluegel brechen nicht.wav

Pre-gap length 0:00:11.18

Peak level 98.7 %
Extraction speed 8.8 X
Track quality 100.0 %
Test CRC BC45197A
Copy CRC BC45197A
Track not present in AccurateRip database
Copy OK

Track 14

Filename C:\Music\14 - Frieden.wav

Pre-gap length 0:00:07.42

Peak level 97.7 %
Extraction speed 9.2 X
Track quality 100.0 %
Test CRC D5C32719
Copy CRC D5C32719
Track not present in AccurateRip database
Copy OK

Track 15

Filename C:\Music\15 - Du bist gut.wav

Peak level 97.7 %
Extraction speed 9.7 X
Track quality 100.0 %
Test CRC 97B366B0
Copy CRC 97B366B0
Track not present in AccurateRip database
Copy OK


None of the tracks are present in the AccurateRip database

No errors occurred

End of status report

==== Log checksum 36CC61879FF49D274EE73ED55B0DC77EF059A2DB0AF6AFBCD50F83876376C323 ====

[CUETools log; Date: 14.06.2017 19:39:39; Version: 2.1.4]
[CTDB TOCID: 9V0oidKYQxKYVWT5IzKFghr8qjM-] found.
Track | CTDB Status
1 | (130/131) Accurately ripped
2 | (130/131) Accurately ripped
3 | (130/131) Accurately ripped
4 | (129/131) Accurately ripped
5 | (130/131) Accurately ripped
6 | (130/131) Accurately ripped
7 | (128/131) Accurately ripped
8 | (129/131) Accurately ripped
9 | (127/131) Accurately ripped
10 | (128/131) Accurately ripped
11 | (129/131) Accurately ripped
12 | (128/131) Accurately ripped
13 | (129/131) Accurately ripped
14 | (128/131) Accurately ripped
15 | (129/131) Accurately ripped
[AccurateRip ID: 00241e4b-019d9672-dd108d0f] found.
Track [ CRC | V2 ] Status
01 [5bb3ea05|c5a064cb] (12+65/77) Accurately ripped
02 [18264c30|3b16d09e] (12+65/77) Accurately ripped
03 [9a627046|a1872cc2] (12+65/77) Accurately ripped
04 [491a1bea|bbea32bc] (12+65/77) Accurately ripped
05 [3dabb316|a178342c] (12+65/77) Accurately ripped
06 [10c76ee6|a1f15095] (12+65/77) Accurately ripped
07 [0926c854|4d411e9a] (12+65/77) Accurately ripped
08 [430b2c4e|1382ea3c] (12+65/77) Accurately ripped
09 [074443c6|de2bd3fb] (12+65/77) Accurately ripped
10 [d77314a4|8311fa5f] (12+65/77) Accurately ripped
11 [90715c3d|eeff9b25] (12+65/77) Accurately ripped
12 [cb37b75c|90274069] (12+64/76) Accurately ripped
13 [86585689|7f30bfc0] (12+65/77) Accurately ripped
14 [5b9cdb72|8addb06a] (12+64/76) Accurately ripped
15 [b6328634|c7e65e50] (12+64/76) Accurately ripped

Track Peak [ CRC32 ] [W/O NULL] [ LOG ]
– 98,8 [F92A1EDB] [E6702F0C]
01 97,6 [70E0D5A5] [01DE749B] CRC32
02 97,7 [ED091660] [954A171F] CRC32
03 97,8 [770C66A3] [8E18EEEE] CRC32
04 97,7 [A93F5F25] [02A01866] CRC32
05 98,8 [08B38EF5] [6B9C3948] CRC32
06 97,7 [187DA05F] [FD5E5B36] CRC32
07 98,8 [306BCAD9] [7C4A904A] CRC32
08 97,7 [D470E130] [F93F03D3] CRC32
09 97,7 [153E62B7] [90B87A92] CRC32
10 97,5 [FEE840B4] [5428875F] CRC32
11 75,7 [3DC1B35B] [48C5C17C] CRC32
12 98,8 [7A2D5D41] [31C6D5DF] CRC32
13 98,7 [BC45197A] [F88645B8] CRC32
14 97,7 [D5C32719] [2A3A4CCA] CRC32
15 97,7 [97B366B0] [9E9042CA] CRC32

foobar2000 1.2 / Dynamic Range Meter 1.1.1
log date: 2017-06-14 20:18:57

––––––––––––––––––––––––––––––––––––––––
Analyzed: Nena / Du Bist Gut (Deluxe Edition) CD 1
––––––––––––––––––––––––––––––––––––––––

DR Peak RMS Duration Track
––––––––––––––––––––––––––––––––––––––––
DR9 -0.21 dB -10.97 dB 4:26 01-Das ist nicht alles
DR10 -0.20 dB -12.90 dB 3:55 02-Schmetterling
DR8 -0.19 dB -9.66 dB 3:25 03-Lied Nummer Eins
DR11 -0.20 dB -13.33 dB 4:08 04-Im Reich meiner Mitte
DR8 -0.10 dB -9.92 dB 4:58 05-Freiheit
DR10 -0.20 dB -11.78 dB 4:46 06-Besser gehts nicht
DR9 -0.10 dB -11.50 dB 4:59 07-Ich hör mir zu
DR9 -0.20 dB -12.37 dB 3:59 08-Wo ist mein Zuhause
DR9 -0.20 dB -10.02 dB 5:22 09-Goldene Zeit Goldenes Land
DR9 -0.22 dB -10.59 dB 3:21 10-Solange Du Dir Sorgen machst
DR10 -2.42 dB -15.28 dB 3:42 11-Lautlos
DR8 -0.10 dB -9.95 dB 5:21 12-Ich hab Dich verloren
DR9 -0.11 dB -12.80 dB 5:10 13-Deine Flügel brechen nicht
DR9 -0.20 dB -11.58 dB 5:30 14-Frieden
DR8 -0.20 dB -9.93 dB 7:35 15-Du bist gut
––––––––––––––––––––––––––––––––––––––––

Number of tracks: 15
Official DR value: DR9

Samplerate: 44100 Hz
Channels: 2
Bits per sample: 16
Bitrate: 816 kbps
Codec: FLAC
================================================================================


Exact Audio Copy V1.0 beta 3 from 29. August 2011

EAC extraction logfile from 1. November 2012, 17:54

Nena / Du Bist Gut (Deluxe Edition) CD 2

Used drive : TSSTcorpCD/DVDW SH-S182M Adapter: 0 ID: 0

Read mode : Secure
Utilize accurate stream : Yes
Defeat audio cache : Yes
Make use of C2 pointers : No

Read offset correction : 6
Overread into Lead-In and Lead-Out : No
Fill up missing offset samples with silence : Yes
Delete leading and trailing silent blocks : No
Null samples used in CRC calculations : Yes
Used interface : Native Win32 interface for Win NT & 2000
Gap handling : Appended to previous track

Used output format : User Defined Encoder
Selected bitrate : 1024 kBit/s
Quality : High
Add ID3 tag : No
Command line compressor : C:\Program Files\Exact Audio Copy\Flac\flac.exe
Additional command line options : -8 -V -T "ARTIST=%artist%" -T "TITLE=%title%" -T "ALBUM=%albumtitle%" -T "DATE=%year%" -T "TRACKNUMBER=%tracknr%" -T "GENRE=%genre%" -T "PERFORMER=%albuminterpret%" -T "COMPOSER=%composer%" %source% -o %dest%


TOC of the extracted CD

Track | Start | Length | Start sector | End sector
––––––––––––––––––––––––––––-
1 | 0:00.00 | 4:12.63 | 0 | 18962
2 | 4:12.63 | 5:17.07 | 18963 | 42744
3 | 9:29.70 | 3:42.31 | 42745 | 59425
4 | 13:12.26 | 5:21.41 | 59426 | 83541
5 | 18:33.67 | 5:33.58 | 83542 | 108574
6 | 24:07.50 | 4:12.19 | 108575 | 127493
7 | 28:19.69 | 4:18.58 | 127494 | 146901
8 | 32:38.52 | 3:32.21 | 146902 | 162822


Track 1

Filename C:\Music\01 - Weisses Schiff (Live in Berlin).wav

Pre-gap length 0:00:02.00

Peak level 98.7 %
Extraction speed 2.6 X
Track quality 100.0 %
Test CRC 8354C48C
Copy CRC 8354C48C
Track not present in AccurateRip database
Copy OK

Track 2

Filename C:\Music\02 - Lichtarbeiter (Featuring Sakias Kerner).wav

Pre-gap length 0:00:01.73

Peak level 98.8 %
Extraction speed 3.0 X
Track quality 100.0 %
Test CRC A502C9EA
Copy CRC A502C9EA
Track not present in AccurateRip database
Copy OK

Track 3

Filename C:\Music\03 - Liebe ist (Live im Studio, Hamburg).wav

Pre-gap length 0:00:01.59

Peak level 98.7 %
Extraction speed 2.8 X
Track quality 99.9 %
Test CRC 9F67AB91
Copy CRC 9F67AB91
Track not present in AccurateRip database
Copy OK

Track 4

Filename C:\Music\04 - Schritt fuer Schritt (Live in Berlin).wav

Peak level 98.7 %
Extraction speed 3.6 X
Track quality 100.0 %
Test CRC BE02170B
Copy CRC BE02170B
Track not present in AccurateRip database
Copy OK

Track 5

Filename C:\Music\05 - Wunder geschehn (Live in Berlin).wav

Peak level 98.7 %
Extraction speed 3.9 X
Track quality 100.0 %
Test CRC 94F9004B
Copy CRC 94F9004B
Track not present in AccurateRip database
Copy OK

Track 6

Filename C:\Music\06 - Willst Du mit mir gehn (Live im Studio, Island).wav

Peak level 99.9 %
Extraction speed 4.0 X
Track quality 100.0 %
Test CRC 900D5FD1
Copy CRC 900D5FD1
Track not present in AccurateRip database
Copy OK

Track 7

Filename C:\Music\07 - Neues Land (Live in Berlin).wav

Peak level 98.8 %
Extraction speed 4.2 X
Track quality 100.0 %
Test CRC 4C02E983
Copy CRC 4C02E983
Track not present in AccurateRip database
Copy OK

Track 8

Filename C:\Music\08 - Ich bin die Liebe (Live im Studio, Island).wav

Peak level 98.8 %
Extraction speed 4.3 X
Track quality 100.0 %
Test CRC 88D56485
Copy CRC 88D56485
Track not present in AccurateRip database
Copy OK


None of the tracks are present in the AccurateRip database

No errors occurred

End of status report

==== Log checksum 64F9DAE03650762982BE1BAB45D1E34D9B4CE1E73AADE9AEE2B6ADC18784A8BD ====

[CUETools log; Date: 14.06.2017 19:39:49; Version: 2.1.4]
[CTDB TOCID: u8UBIzWaBDD20nj3b3PnVvr4yQ0-] found.
Track | CTDB Status
1 | (70/70) Accurately ripped
2 | (70/70) Accurately ripped
3 | (70/70) Accurately ripped
4 | (70/70) Accurately ripped
5 | (70/70) Accurately ripped
6 | (70/70) Accurately ripped
7 | (70/70) Accurately ripped
8 | (69/70) Accurately ripped
[AccurateRip ID: 000b7386-004c631b-61087a08] found.
Track [ CRC | V2 ] Status
01 [937dfd6d|60ddab1c] (05+34/39) Accurately ripped
02 [9c8b5071|74fd7ef4] (05+34/39) Accurately ripped
03 [92a8fba5|3b276fd8] (05+34/39) Accurately ripped
04 [3b54c0f0|262dccd9] (04+34/38) Accurately ripped
05 [96556fa6|8db2da81] (04+34/38) Accurately ripped
06 [3653d89c|8f2fa133] (05+34/39) Accurately ripped
07 [fce16cd4|cfca1f81] (05+34/39) Accurately ripped
08 [0d7364a7|86b87e33] (04+34/38) Accurately ripped

Track Peak [ CRC32 ] [W/O NULL] [ LOG ]
– 99,9 [F5C96194] [44F78960]
01 98,7 [8354C48C] [57AB592A] CRC32
02 98,8 [A502C9EA] [12B91BA5] CRC32
03 98,7 [9F67AB91] [D83A772B] CRC32
04 98,7 [BE02170B] [275AF38D] CRC32
05 98,7 [94F9004B] [03FBE231] CRC32
06 99,9 [900D5FD1] [165585FD] CRC32
07 98,7 [4C02E983] [10724E35] CRC32
08 98,8 [88D56485] [9A564E9D] CRC32

foobar2000 1.2 / Dynamic Range Meter 1.1.1
log date: 2017-06-14 20:19:15

––––––––––––––––––––––––––––––––––––––––
Analyzed: Nena / Du Bist Gut (Deluxe Edition) CD 2
––––––––––––––––––––––––––––––––––––––––

DR Peak RMS Duration Track
––––––––––––––––––––––––––––––––––––––––
DR9 -0.11 dB -12.21 dB 4:13 01-Weisses Schiff (Live in Berlin)
DR10 -0.10 dB -12.28 dB 5:17 02-Lichtarbeiter (Featuring Sakias Kerner)
DR11 -0.11 dB -15.00 dB 3:42 03-Liebe ist (Live im Studio, Hamburg)
DR8 -0.11 dB -9.38 dB 5:22 04-Schritt für Schritt (Live in Berlin)
DR10 -0.11 dB -13.03 dB 5:34 05-Wunder geschehn (Live in Berlin)
DR9 -0.01 dB -10.77 dB 4:12 06-Willst Du mit mir gehn (Live im Studio, Island)
DR9 -0.11 dB -11.83 dB 4:19 07-Neues Land (Live in Berlin)
DR11 -0.10 dB -13.24 dB 3:32 08-Ich bin die Liebe (Live im Studio, Island)
––––––––––––––––––––––––––––––––––––––––

Number of tracks: 8
Official DR value: DR10

Samplerate: 44100 Hz
Channels: 2
Bits per sample: 16
Bitrate: 845 kbps
Codec: FLAC
================================================================================




All thanks to lav13 for 'Chokmah', and to Filex777 for all the other albums

More interesting music in My Blog

Nena - Original Album Classics (2010) 5 CD Box Set