Subcategories

Dave Matthews Band - Live Trax, Vol. 52: 2014-06-06 - Darling's Waterfront Pavilion, Bangor, ME (2020)

Posted By: delpotro
Dave Matthews Band - Live Trax, Vol. 52: 2014-06-06 - Darling's Waterfront Pavilion, Bangor, ME (2020)

Dave Matthews Band - Live Trax, Vol. 52: 2014-06-06 - Darling's Waterfront Pavilion, Bangor, ME (2020)
EAC Rip | FLAC (tracks+log+.cue) - 1,04 Gb | MP3 CBR 320 kbps - 389 Mb | 02:49:43
Alternative Rock, Jam Band | Label: Bama Rags Records

On June 6, 2014, Dave Matthews Band returned to the state of Maine for the first time since 1997. With an acoustic set to open the show, fans got a taste of classic DMB tunes in stripped down arrangements. An intimate Oh and Bartender kick off the evening with Dave and Tim. By the end of set 1 it’s all hands on deck for an acoustically joyful Tripping Billies, gearing the crowd up for the electric second set. This show from the Summer of 2014 touches upon all eras of the DMB catalog from the radio hit, Crush, to the hard hitting Drive In, Drive Out.
Tracklist:
Disc 1
1. Oh (04:11)
2. Bartender (08:28)
3. Two Step (08:23)
4. Stolen Away On 55th & 3rd (09:04)
5. What Would You Say (05:48)
6. I'll Back You Up (04:40)
7. Recently (04:24)
8. Tripping Billies (05:29)

Disc 2
1. One Sweet World (07:50)
2. You & Me (05:04)
3. Belly Belly Nice (04:03)
4. Crush >> (14:17)
5. Blue Water (01:42)
6. Warehouse (10:23)
7. Save Me (05:03)
8. Spaceman >> (08:04)
9. Cornbread (07:28)

Disc 3
1. If Only (07:45)
2. Drive In, Drive Out (07:23)
3. The Song That Jane Likes (04:56)
4. Grey Street (05:28)
5. Jimi Thing (15:54)
6. The Space Between (05:08)
7. Ants Marching (08:50)

Exact Audio Copy V1.5 from 20. February 2020

EAC extraction logfile from 5. August 2020, 16:40

Dave Matthews Band / Live Trax, Vol. 52 - 2014-06-06 - Darling's Waterfront Pavilion, Bangor, ME

Used drive : HL-DT-STBD-RE BP40NS20 Adapter: 1 ID: 1

Read mode : Secure
Utilize accurate stream : Yes
Defeat audio cache : Yes
Make use of C2 pointers : No

Read offset correction : 667
Overread into Lead-In and Lead-Out : No
Fill up missing offset samples with silence : Yes
Delete leading and trailing silent blocks : No
Null samples used in CRC calculations : Yes
Used interface : Native Win32 interface for Win NT & 2000
Gap handling : Appended to previous track

Used output format : User Defined Encoder
Selected bitrate : 1024 kBit/s
Quality : High
Add ID3 tag : No
Command line compressor : C:\Program Files (x86)\Exact Audio Copy\Flac\flac.exe
Additional command line options : -8 -V -T "ARTIST=%artist%" -T "TITLE=%title%" -T "ALBUM=%albumtitle%" -T "DATE=%year%" -T "TRACKNUMBER=%tracknr%" -T "GENRE=%genre%" -T "PERFORMER=%albuminterpret%" -T "COMPOSER=%composer%" -T "ALBUMARTIST=%albumartist%" -T "DISCNUMBER=%cdnumber%" -T "TOTALDISCS=%totalcds%" -T "TOTALTRACKS=%numtracks%" -T "COMMENT=%comment%" %source% -o %dest%


TOC of the extracted CD

Track | Start | Length | Start sector | End sector
––––––––––––––––––––––––––––-
1 | 0:00.00 | 4:11.30 | 0 | 18854
2 | 4:11.30 | 8:27.70 | 18855 | 56949
3 | 12:39.25 | 8:22.42 | 56950 | 94641
4 | 21:01.67 | 9:03.51 | 94642 | 135417
5 | 30:05.43 | 5:48.12 | 135418 | 161529
6 | 35:53.55 | 4:39.61 | 161530 | 182515
7 | 40:33.41 | 4:24.05 | 182516 | 202320
8 | 44:57.46 | 5:28.44 | 202321 | 226964


Track 1

Filename G:\Music\EAC rips\Dave Matthews Band - Live Trax, Vol. 52 - 2014-06-06 - Darling's Waterfront Pavilion, Bangor, ME (2020) [FLAC] {3CD}\CD1\01 - Oh.wav

Pre-gap length 0:00:02.00

Peak level 84.7 %
Extraction speed 1.2 X
Track quality 100.0 %
Test CRC 6D47BBA5
Copy CRC 6D47BBA5
Track not present in AccurateRip database
Copy OK

Track 2

Filename G:\Music\EAC rips\Dave Matthews Band - Live Trax, Vol. 52 - 2014-06-06 - Darling's Waterfront Pavilion, Bangor, ME (2020) [FLAC] {3CD}\CD1\02 - Bartender.wav

Peak level 88.7 %
Extraction speed 1.4 X
Track quality 99.9 %
Test CRC 4A51D8A8
Copy CRC 4A51D8A8
Track not present in AccurateRip database
Copy OK

Track 3

Filename G:\Music\EAC rips\Dave Matthews Band - Live Trax, Vol. 52 - 2014-06-06 - Darling's Waterfront Pavilion, Bangor, ME (2020) [FLAC] {3CD}\CD1\03 - Two Step.wav

Peak level 90.9 %
Extraction speed 1.8 X
Track quality 100.0 %
Test CRC 86A926C7
Copy CRC 86A926C7
Track not present in AccurateRip database
Copy OK

Track 4

Filename G:\Music\EAC rips\Dave Matthews Band - Live Trax, Vol. 52 - 2014-06-06 - Darling's Waterfront Pavilion, Bangor, ME (2020) [FLAC] {3CD}\CD1\04 - Stolen Away On 55th & 3rd.wav

Peak level 87.7 %
Extraction speed 2.0 X
Track quality 100.0 %
Test CRC 923916A9
Copy CRC 923916A9
Track not present in AccurateRip database
Copy OK

Track 5

Filename G:\Music\EAC rips\Dave Matthews Band - Live Trax, Vol. 52 - 2014-06-06 - Darling's Waterfront Pavilion, Bangor, ME (2020) [FLAC] {3CD}\CD1\05 - What Would You Say.wav

Peak level 90.6 %
Extraction speed 2.1 X
Track quality 100.0 %
Test CRC B345F04A
Copy CRC B345F04A
Track not present in AccurateRip database
Copy OK

Track 6

Filename G:\Music\EAC rips\Dave Matthews Band - Live Trax, Vol. 52 - 2014-06-06 - Darling's Waterfront Pavilion, Bangor, ME (2020) [FLAC] {3CD}\CD1\06 - I'll Back You Up.wav

Peak level 83.6 %
Extraction speed 2.2 X
Track quality 100.0 %
Test CRC A31FA209
Copy CRC A31FA209
Track not present in AccurateRip database
Copy OK

Track 7

Filename G:\Music\EAC rips\Dave Matthews Band - Live Trax, Vol. 52 - 2014-06-06 - Darling's Waterfront Pavilion, Bangor, ME (2020) [FLAC] {3CD}\CD1\07 - Recently.wav

Peak level 90.8 %
Extraction speed 2.3 X
Track quality 100.0 %
Test CRC 272A1842
Copy CRC 272A1842
Track not present in AccurateRip database
Copy OK

Track 8

Filename G:\Music\EAC rips\Dave Matthews Band - Live Trax, Vol. 52 - 2014-06-06 - Darling's Waterfront Pavilion, Bangor, ME (2020) [FLAC] {3CD}\CD1\08 - Tripping Billies.wav

Peak level 90.8 %
Extraction speed 2.4 X
Track quality 100.0 %
Test CRC 059B5BA2
Copy CRC 059B5BA2
Track not present in AccurateRip database
Copy OK


None of the tracks are present in the AccurateRip database

No errors occurred

End of status report

–– CUETools DB Plugin V2.1.6

[CTDB TOCID: IPmnMZUy94SJdf9eI0eY7VLmOlQ-] found
Submit result: IPmnMZUy94SJdf9eI0eY7VLmOlQ- has been confirmed
Track | CTDB Status
1 | (3/3) Accurately ripped
2 | (3/3) Accurately ripped
3 | (3/3) Accurately ripped
4 | (3/3) Accurately ripped
5 | (3/3) Accurately ripped
6 | (3/3) Accurately ripped
7 | (3/3) Accurately ripped
8 | (3/3) Accurately ripped


==== Log checksum D537243865EBCE2E7EE1A4A3A4598F61997B4A4E7DC3902788FB91676454F93E ====
Exact Audio Copy V1.5 from 20. February 2020

EAC extraction logfile from 5. August 2020, 17:52

Dave Matthews Band / Live Trax, Vol. 52 - 2014-06-06 - Darling's Waterfront Pavilion, Bangor, ME

Used drive : HL-DT-STBD-RE BP40NS20 Adapter: 1 ID: 1

Read mode : Secure
Utilize accurate stream : Yes
Defeat audio cache : Yes
Make use of C2 pointers : No

Read offset correction : 667
Overread into Lead-In and Lead-Out : No
Fill up missing offset samples with silence : Yes
Delete leading and trailing silent blocks : No
Null samples used in CRC calculations : Yes
Used interface : Native Win32 interface for Win NT & 2000
Gap handling : Appended to previous track

Used output format : User Defined Encoder
Selected bitrate : 1024 kBit/s
Quality : High
Add ID3 tag : No
Command line compressor : C:\Program Files (x86)\Exact Audio Copy\Flac\flac.exe
Additional command line options : -8 -V -T "ARTIST=%artist%" -T "TITLE=%title%" -T "ALBUM=%albumtitle%" -T "DATE=%year%" -T "TRACKNUMBER=%tracknr%" -T "GENRE=%genre%" -T "PERFORMER=%albuminterpret%" -T "COMPOSER=%composer%" -T "ALBUMARTIST=%albumartist%" -T "DISCNUMBER=%cdnumber%" -T "TOTALDISCS=%totalcds%" -T "TOTALTRACKS=%numtracks%" -T "COMMENT=%comment%" %source% -o %dest%


TOC of the extracted CD

Track | Start | Length | Start sector | End sector
––––––––––––––––––––––––––––-
1 | 0:00.00 | 7:50.01 | 0 | 35250
2 | 7:50.01 | 5:03.51 | 35251 | 58026
3 | 12:53.52 | 4:03.27 | 58027 | 76278
4 | 16:57.04 | 14:16.73 | 76279 | 140551
5 | 31:14.02 | 1:41.52 | 140552 | 148178
6 | 32:55.54 | 10:22.58 | 148179 | 194886
7 | 43:18.37 | 5:02.52 | 194887 | 217588
8 | 48:21.14 | 8:03.71 | 217589 | 253884
9 | 56:25.10 | 7:27.62 | 253885 | 287471


Track 1

Filename G:\Music\EAC rips\Dave Matthews Band - Live Trax, Vol. 52 - 2014-06-06 - Darling's Waterfront Pavilion, Bangor, ME (2020) [FLAC] {3CD}\CD2\01 - One Sweet World.wav

Pre-gap length 0:00:02.00

Peak level 89.2 %
Extraction speed 1.4 X
Track quality 100.0 %
Test CRC 6A39074F
Copy CRC 6A39074F
Track not present in AccurateRip database
Copy OK

Track 2

Filename G:\Music\EAC rips\Dave Matthews Band - Live Trax, Vol. 52 - 2014-06-06 - Darling's Waterfront Pavilion, Bangor, ME (2020) [FLAC] {3CD}\CD2\02 - You & Me.wav

Peak level 91.6 %
Extraction speed 1.5 X
Track quality 100.0 %
Test CRC FBA2D966
Copy CRC FBA2D966
Track not present in AccurateRip database
Copy OK

Track 3

Filename G:\Music\EAC rips\Dave Matthews Band - Live Trax, Vol. 52 - 2014-06-06 - Darling's Waterfront Pavilion, Bangor, ME (2020) [FLAC] {3CD}\CD2\03 - Belly Belly Nice.wav

Peak level 90.8 %
Extraction speed 1.4 X
Track quality 99.9 %
Test CRC 66ED643C
Copy CRC 66ED643C
Track not present in AccurateRip database
Copy OK

Track 4

Filename G:\Music\EAC rips\Dave Matthews Band - Live Trax, Vol. 52 - 2014-06-06 - Darling's Waterfront Pavilion, Bangor, ME (2020) [FLAC] {3CD}\CD2\04 - Crush ]].wav

Peak level 91.9 %
Extraction speed 2.0 X
Track quality 100.0 %
Test CRC 2F775A7C
Copy CRC 2F775A7C
Track not present in AccurateRip database
Copy OK

Track 5

Filename G:\Music\EAC rips\Dave Matthews Band - Live Trax, Vol. 52 - 2014-06-06 - Darling's Waterfront Pavilion, Bangor, ME (2020) [FLAC] {3CD}\CD2\05 - Blue Water.wav

Peak level 40.4 %
Extraction speed 1.7 X
Track quality 100.0 %
Test CRC 28E514EA
Copy CRC 28E514EA
Track not present in AccurateRip database
Copy OK

Track 6

Filename G:\Music\EAC rips\Dave Matthews Band - Live Trax, Vol. 52 - 2014-06-06 - Darling's Waterfront Pavilion, Bangor, ME (2020) [FLAC] {3CD}\CD2\06 - Warehouse.wav

Peak level 91.5 %
Extraction speed 2.3 X
Track quality 100.0 %
Test CRC 7398425F
Copy CRC 7398425F
Track not present in AccurateRip database
Copy OK

Track 7

Filename G:\Music\EAC rips\Dave Matthews Band - Live Trax, Vol. 52 - 2014-06-06 - Darling's Waterfront Pavilion, Bangor, ME (2020) [FLAC] {3CD}\CD2\07 - Save Me.wav

Peak level 90.1 %
Extraction speed 2.3 X
Track quality 100.0 %
Test CRC D3A65C17
Copy CRC D3A65C17
Track not present in AccurateRip database
Copy OK

Track 8

Filename G:\Music\EAC rips\Dave Matthews Band - Live Trax, Vol. 52 - 2014-06-06 - Darling's Waterfront Pavilion, Bangor, ME (2020) [FLAC] {3CD}\CD2\08 - Spaceman ]].wav

Peak level 89.7 %
Extraction speed 2.6 X
Track quality 100.0 %
Test CRC 1A09EFCA
Copy CRC 1A09EFCA
Track not present in AccurateRip database
Copy OK

Track 9

Filename G:\Music\EAC rips\Dave Matthews Band - Live Trax, Vol. 52 - 2014-06-06 - Darling's Waterfront Pavilion, Bangor, ME (2020) [FLAC] {3CD}\CD2\09 - Corn Bread.wav

Peak level 90.6 %
Extraction speed 2.7 X
Track quality 100.0 %
Test CRC 9186AA25
Copy CRC 9186AA25
Track not present in AccurateRip database
Copy OK


None of the tracks are present in the AccurateRip database

No errors occurred

End of status report

–– CUETools DB Plugin V2.1.6

[CTDB TOCID: jMNDEgR29Cdi.ie3s0f139SkbTY-] found
Submit result: jMNDEgR29Cdi.ie3s0f139SkbTY- has been confirmed
Track | CTDB Status
1 | (3/3) Accurately ripped
2 | (3/3) Accurately ripped
3 | (3/3) Accurately ripped
4 | (3/3) Accurately ripped
5 | (3/3) Accurately ripped
6 | (3/3) Accurately ripped
7 | (3/3) Accurately ripped
8 | (3/3) Accurately ripped
9 | (3/3) Accurately ripped


==== Log checksum 17F383C73BD25E75C818DE8EEF5D29F37A2968D7223F3E2745E206A852DDF8DA ====
Exact Audio Copy V1.5 from 20. February 2020

EAC extraction logfile from 5. August 2020, 19:09

Dave Matthews Band / Live Trax, Vol. 52 - 2014-06-06 - Darling's Waterfront Pavilion, Bangor, ME

Used drive : HL-DT-STBD-RE BP40NS20 Adapter: 1 ID: 1

Read mode : Secure
Utilize accurate stream : Yes
Defeat audio cache : Yes
Make use of C2 pointers : No

Read offset correction : 667
Overread into Lead-In and Lead-Out : No
Fill up missing offset samples with silence : Yes
Delete leading and trailing silent blocks : No
Null samples used in CRC calculations : Yes
Used interface : Native Win32 interface for Win NT & 2000
Gap handling : Appended to previous track

Used output format : User Defined Encoder
Selected bitrate : 1024 kBit/s
Quality : High
Add ID3 tag : No
Command line compressor : C:\Program Files (x86)\Exact Audio Copy\Flac\flac.exe
Additional command line options : -8 -V -T "ARTIST=%artist%" -T "TITLE=%title%" -T "ALBUM=%albumtitle%" -T "DATE=%year%" -T "TRACKNUMBER=%tracknr%" -T "GENRE=%genre%" -T "PERFORMER=%albuminterpret%" -T "COMPOSER=%composer%" -T "ALBUMARTIST=%albumartist%" -T "DISCNUMBER=%cdnumber%" -T "TOTALDISCS=%totalcds%" -T "TOTALTRACKS=%numtracks%" -T "COMMENT=%comment%" %source% -o %dest%


TOC of the extracted CD

Track | Start | Length | Start sector | End sector
––––––––––––––––––––––––––––-
1 | 0:00.00 | 7:44.66 | 0 | 34865
2 | 7:44.66 | 7:23.22 | 34866 | 68112
3 | 15:08.13 | 4:56.14 | 68113 | 90326
4 | 20:04.27 | 5:28.02 | 90327 | 114928
5 | 25:32.29 | 15:53.70 | 114929 | 186473
6 | 41:26.24 | 5:07.70 | 186474 | 209568
7 | 46:34.19 | 8:49.68 | 209569 | 249311


Track 1

Filename G:\Music\EAC rips\Dave Matthews Band - Live Trax, Vol. 52 - 2014-06-06 - Darling's Waterfront Pavilion, Bangor, ME (2020) [FLAC] {3CD}\CD3\01 - If Only.wav

Pre-gap length 0:00:02.00

Peak level 91.1 %
Extraction speed 1.4 X
Track quality 100.0 %
Test CRC 4772E93B
Copy CRC 4772E93B
Track not present in AccurateRip database
Copy OK

Track 2

Filename G:\Music\EAC rips\Dave Matthews Band - Live Trax, Vol. 52 - 2014-06-06 - Darling's Waterfront Pavilion, Bangor, ME (2020) [FLAC] {3CD}\CD3\02 - Drive In, Drive Out.wav

Peak level 89.0 %
Extraction speed 1.6 X
Track quality 100.0 %
Test CRC 726179FD
Copy CRC 726179FD
Track not present in AccurateRip database
Copy OK

Track 3

Filename G:\Music\EAC rips\Dave Matthews Band - Live Trax, Vol. 52 - 2014-06-06 - Darling's Waterfront Pavilion, Bangor, ME (2020) [FLAC] {3CD}\CD3\03 - The Song That Jane Likes.wav

Peak level 88.3 %
Extraction speed 1.7 X
Track quality 100.0 %
Test CRC 93BBFBAB
Copy CRC 93BBFBAB
Track not present in AccurateRip database
Copy OK

Track 4

Filename G:\Music\EAC rips\Dave Matthews Band - Live Trax, Vol. 52 - 2014-06-06 - Darling's Waterfront Pavilion, Bangor, ME (2020) [FLAC] {3CD}\CD3\04 - Grey Street.wav

Peak level 89.9 %
Extraction speed 1.7 X
Track quality 99.9 %
Test CRC B446A76B
Copy CRC B446A76B
Track not present in AccurateRip database
Copy OK

Track 5

Filename G:\Music\EAC rips\Dave Matthews Band - Live Trax, Vol. 52 - 2014-06-06 - Darling's Waterfront Pavilion, Bangor, ME (2020) [FLAC] {3CD}\CD3\05 - Jimi Thing.wav

Peak level 91.5 %
Extraction speed 2.3 X
Track quality 100.0 %
Test CRC BA924918
Copy CRC BA924918
Track not present in AccurateRip database
Copy OK

Track 6

Filename G:\Music\EAC rips\Dave Matthews Band - Live Trax, Vol. 52 - 2014-06-06 - Darling's Waterfront Pavilion, Bangor, ME (2020) [FLAC] {3CD}\CD3\06 - The Space Between.wav

Peak level 90.1 %
Extraction speed 2.3 X
Track quality 100.0 %
Test CRC C87C942E
Copy CRC C87C942E
Track not present in AccurateRip database
Copy OK

Track 7

Filename G:\Music\EAC rips\Dave Matthews Band - Live Trax, Vol. 52 - 2014-06-06 - Darling's Waterfront Pavilion, Bangor, ME (2020) [FLAC] {3CD}\CD3\07 - Ants Marching.wav

Peak level 92.0 %
Extraction speed 2.4 X
Track quality 99.9 %
Test CRC 360F825D
Copy CRC 360F825D
Track not present in AccurateRip database
Copy OK


None of the tracks are present in the AccurateRip database

No errors occurred

End of status report

–– CUETools DB Plugin V2.1.6

[CTDB TOCID: pUhjsIv_cmzaTcflXMXbhhLRmjE-] found
Submit result: pUhjsIv_cmzaTcflXMXbhhLRmjE- has been confirmed
Track | CTDB Status
1 | (1/1) Accurately ripped
2 | (1/1) Accurately ripped
3 | (1/1) Accurately ripped
4 | (1/1) Accurately ripped
5 | (1/1) Accurately ripped
6 | (1/1) Accurately ripped
7 | (1/1) Accurately ripped


==== Log checksum 719292FE1D323C3D869BE4948528D6FF4BEC34965B99E41DF553ED19E3442C23 ====

Thanks to the Original ripper !