Index
# A B C D E F G H I J K L M N O P Q R S T U V W Y Z
Tags
Language
Tags

Featured TV Shows


Life Sentence S01E08

Posted By: Tavaz
SD / HDTV IMDb
Life Sentence S01E08

Life Sentence S01E08
HDTV | MKV | 720x404 | English | H264 @ 759 kbps | AAC @ 112 kbps | 41 min 15 s | 258 MiB
Genre: Comedy, Drama

When Stella finds out her terminal cancer is cured, she's going to have to learn to live with all the choices she's made when she decided to "live like she was dying".

sample-life.sentence.s01e08.hdtv.x264-killers.mkv (6.7 MB)
Life.Sentence.S01E08.HDTV.x264-KILLERS.mkv (257.9 MB)



General
Unique ID : 176628476998285902050184752807061591013 (0x84E168440AF67DC9B8D7770BC27193E5)
Complete name : ./Life.Sentence.S01E08.HDTV.x264-KILLERS.mkv
Format : Matroska
Format version : Version 4 / Version 2
File size : 258 MiB
Duration : 41 min 15 s
Overall bit rate : 874 kb/s
Encoded date : UTC 2018-05-12 02:40:40
Writing application : mkvmerge v8.8.0 ('Wind at my back') 64bit
Writing library : libebml v1.3.3 + libmatroska v1.4.4

Video
ID : 1
Format : AVC
Format/Info : Advanced Video Codec
Format profile : High@L3.1
Format settings : CABAC / 5 Ref Frames
Format settings, CABAC : Yes
Format settings, RefFrames : 5 frames
Codec ID : V_MPEG4/ISO/AVC
Duration : 41 min 15 s
Bit rate : 760 kb/s
Width : 720 pixels
Height : 404 pixels
Display aspect ratio : 16:9
Frame rate mode : Constant
Frame rate : 23.976 (24000/1001) FPS
Color space : YUV
Chroma subsampling : 4:2:0
Bit depth : 8 bits
Scan type : Progressive
Bits/(Pixel*Frame) : 0.109
Stream size : 224 MiB (87%)
Writing library : x264 core 155 r2901 7d0ff22
Encoding settings : cabac=1 / ref=5 / deblock=1:0:0 / analyse=0x3:0x113 / me=hex / subme=8 / psy=1 / psy_rd=1.00:0.00 / mixed_ref=1 / me_range=16 / chroma_me=1 / trellis=2 / 8x8dct=1 / cqm=0 / deadzone=21,11 / fast_pskip=1 / chroma_qp_offset=-2 / threads=48 / lookahead_threads=3 / sliced_threads=0 / nr=0 / decimate=1 / interlaced=0 / bluray_compat=0 / constrained_intra=0 / bframes=3 / b_pyramid=2 / b_adapt=1 / b_bias=0 / direct=3 / weightb=1 / open_gop=0 / weightp=2 / keyint=250 / keyint_min=23 / scenecut=40 / intra_refresh=0 / rc_lookahead=50 / rc=crf / mbtree=1 / crf=19.0 / qcomp=0.60 / qpmin=0 / qpmax=69 / qpstep=4 / ip_ratio=1.40 / aq=1:1.00
Default : Yes
Forced : No
Color range : Limited
Matrix coefficients : BT.709

Audio
ID : 2
Format : AAC
Format/Info : Advanced Audio Codec
Format profile : LC
Codec ID : A_AAC-2
Duration : 41 min 15 s
Bit rate : 112 kb/s
Channel(s) : 2 channels
Channel positions : Front: L R
Sampling rate : 48.0 kHz
Frame rate : 46.875 FPS (1024 SPF)
Compression mode : Lossy
Delay relative to video : 20 ms
Stream size : 33.1 MiB (13%)
Default : Yes
Forced : No





Life Sentence S01E08


Life Sentence S01E08


Life Sentence S01E08


Life Sentence S01E08


Life Sentence S01E08

All episodes