Featured TV Shows


The Path S03E08

Posted By: Tavaz
720p (HD) / WEBRip IMDb
The Path S03E08

The Path S03E08
WEB-DL | MKV | 1280x720 | German / English | H264 @ 1913 kbps | AC-3 @ 640 kbps | 52 min 18 s | 1.17 GiB
Subtitles: English
Genre: Drama, Mystery

The Path explores the unknown and mysterious world of the cult-like Meyerist Movement in upstate New York. At the center of the movement lies Eddie, a conflicted husband; Sarah, his devoted wife; and Cal, an ambitious leader. We follow each as they contend with deep issues involving relationships, faith, and power.

The.Path.S03E08.German.DL.DUBBED.720p.WebHD.x264-TVNATiON.mkv (1.2 GB)
the.path.s03e08.german.dl.dubbed.720p.webhd.x264-tvnation.sample.mkv (20.6 MB)



General
Unique ID : 209105374875223383997583794022063992481 (0x9D503AF4F869C2FD9AA62CD49BF2EEA1)
Complete name : ./The.Path.S03E08.German.DL.DUBBED.720p.WebHD.x264-TVNATiON.mkv
Format : Matroska
Format version : Version 4 / Version 2
File size : 1.17 GiB
Duration : 52 min 18 s
Overall bit rate : 3 195 kb/s
Encoded date : UTC 2018-05-01 10:36:39
Writing application : mkvmerge v8.3.0 ('Over the Horizon') 64bit
Writing library : libebml v1.3.1 + libmatroska v1.4.2

Video
ID : 1
Format : AVC
Format/Info : Advanced Video Codec
Format profile : High@L3.1
Format settings : CABAC / 5 Ref Frames
Format settings, CABAC : Yes
Format settings, RefFrames : 5 frames
Codec ID : V_MPEG4/ISO/AVC
Duration : 52 min 18 s
Bit rate : 1 913 kb/s
Width : 1 280 pixels
Height : 720 pixels
Display aspect ratio : 16:9
Frame rate mode : Constant
Frame rate : 23.976 (24000/1001) FPS
Color space : YUV
Chroma subsampling : 4:2:0
Bit depth : 8 bits
Scan type : Progressive
Bits/(Pixel*Frame) : 0.087
Stream size : 716 MiB (60%)
Language : English
Default : Yes
Forced : No

Audio #1
ID : 2
Format : AC-3
Format/Info : Audio Coding 3
Format settings, Endianness : Big
Codec ID : A_AC3
Duration : 52 min 18 s
Bit rate mode : Constant
Bit rate : 640 kb/s
Channel(s) : 6 channels
Channel positions : Front: L C R, Side: L R, LFE
Sampling rate : 48.0 kHz
Frame rate : 31.250 FPS (1536 SPF)
Bit depth : 16 bits
Compression mode : Lossy
Delay relative to video : -83 ms
Stream size : 239 MiB (20%)
Language : German
Service kind : Complete Main
Default : Yes
Forced : No

Audio #2
ID : 3
Format : E-AC-3
Format/Info : Enhanced Audio Coding 3
Format settings, Endianness : Big
Codec ID : A_EAC3
Duration : 52 min 18 s
Bit rate mode : Constant
Bit rate : 640 kb/s
Channel(s) : 6 channels
Channel positions : Front: L C R, Side: L R, LFE
Sampling rate : 48.0 kHz
Frame rate : 187.500 FPS (256 SPF)
Compression mode : Lossy
Delay relative to video : -83 ms
Stream size : 239 MiB (20%)
Language : English
Service kind : Complete Main
Default : No
Forced : No

Text
ID : 4
Format : UTF-8
Codec ID : S_TEXT/UTF8
Codec ID/Info : UTF-8 Plain Text
Duration : 52 min 9 s
Bit rate : 81 b/s
Count of elements : 976
Stream size : 31.1 KiB (0%)
Language : English
Default : No
Forced : No





The Path S03E08


The Path S03E08


The Path S03E08


The Path S03E08


The Path S03E08

All episodes