Featured TV Shows


The Path S03E13

Posted By: Tavaz
1080p (FullHD) / WEB-DL IMDb
The Path S03E13

The Path S03E13
WEB-DL | MKV | 1920x1080 | English | H264 @ 4113 kbps | AAC @ 63 kbps | 55 min 35 s | 1.62 GiB
Subtitles: Spanish, English
Genre: Drama, Mystery

The Path explores the unknown and mysterious world of the cult-like Meyerist Movement in upstate New York. At the center of the movement lies Eddie, a conflicted husband; Sarah, his devoted wife; and Cal, an ambitious leader. We follow each as they contend with deep issues involving relationships, faith, and power.

a7dddde4937c4b30951eb07ceff9eea7.mkv (1.6 GB)



General
Unique ID : 171089671406156406584844706034983865896 (0x80B6AC10F368AE1D941B21DC8CB78E28)
Complete name : ./a7dddde4937c4b30951eb07ceff9eea7.mkv
Format : Matroska
Format version : Version 4 / Version 2
File size : 1.62 GiB
Duration : 55 min 35 s
Overall bit rate : 4 180 kb/s
Encoded date : UTC 2018-03-28 13:04:01
Writing application : mkvmerge v9.5.0 ('Quiet Fire') 32bit
Writing library : libebml v1.3.4 + libmatroska v1.4.5

Video
ID : 1
Format : AVC
Format/Info : Advanced Video Codec
Format profile : High@L4
Format settings : CABAC / 4 Ref Frames
Format settings, CABAC : Yes
Format settings, RefFrames : 4 frames
Codec ID : V_MPEG4/ISO/AVC
Duration : 55 min 35 s
Bit rate : 4 114 kb/s
Width : 1 920 pixels
Height : 1 080 pixels
Display aspect ratio : 16:9
Frame rate mode : Constant
Frame rate : 23.976 FPS
Color space : YUV
Chroma subsampling : 4:2:0
Bit depth : 8 bits
Scan type : Progressive
Bits/(Pixel*Frame) : 0.083
Stream size : 1.60 GiB (98%)
Default : Yes
Forced : No

Audio
ID : 2
Format : AAC
Format/Info : Advanced Audio Codec
Format profile : HE-AAC / LC
Format settings : Explicit
Codec ID : A_AAC-2
Duration : 55 min 35 s
Bit rate : 64.0 kb/s
Channel(s) : 2 channels
Channel positions : Front: L R
Sampling rate : 48.0 kHz / 24.0 kHz
Frame rate : 23.438 FPS (1024 SPF)
Compression mode : Lossy
Stream size : 25.5 MiB (2%)
Default : Yes
Forced : No

Text #1
ID : 3
Format : UTF-8
Codec ID : S_TEXT/UTF8
Codec ID/Info : UTF-8 Plain Text
Duration : 55 min 27 s
Bit rate : 77 b/s
Count of elements : 1148
Stream size : 31.4 KiB (0%)
Language : English
Default : No
Forced : No

Text #2
ID : 4
Format : UTF-8
Codec ID : S_TEXT/UTF8
Codec ID/Info : UTF-8 Plain Text
Duration : 55 min 25 s
Bit rate : 73 b/s
Count of elements : 1114
Stream size : 29.9 KiB (0%)
Language : Spanish
Default : No
Forced : No

Menu
00:00:00.000 : en:Chapter 1
00:21:54.791 : en:Chapter 2
00:31:11.333 : en:Chapter 3
00:43:11.083 : en:Chapter 4





The Path S03E13


The Path S03E13


The Path S03E13


The Path S03E13


The Path S03E13

All episodes