Featured TV Shows


The Path S03E13

Posted By: Tavaz
720p (HD) / WEB-DL IMDb
The Path S03E13

The Path S03E13
WEB-DL | MKV | 1280x720 | English | H264 @ 1772 kbps | AAC @ 63 kbps | 55 min 35 s | 731 MiB
Subtitles: Spanish, English
Genre: Drama, Mystery

The Path explores the unknown and mysterious world of the cult-like Meyerist Movement in upstate New York. At the center of the movement lies Eddie, a conflicted husband; Sarah, his devoted wife; and Cal, an ambitious leader. We follow each as they contend with deep issues involving relationships, faith, and power.

4b95c42137ef436abae7bd7b2e4d65be.mkv (731.2 MB)



General
Unique ID : 241016472429245571884809842815057672583 (0xB5521589D1C142199B38BC87549A3987)
Complete name : ./4b95c42137ef436abae7bd7b2e4d65be.mkv
Format : Matroska
Format version : Version 4 / Version 2
File size : 731 MiB
Duration : 55 min 35 s
Overall bit rate : 1 839 kb/s
Encoded date : UTC 2018-03-28 13:48:04
Writing application : mkvmerge v9.5.0 ('Quiet Fire') 32bit
Writing library : libebml v1.3.4 + libmatroska v1.4.5

Video
ID : 1
Format : AVC
Format/Info : Advanced Video Codec
Format profile : High@L3.1
Format settings : CABAC / 5 Ref Frames
Format settings, CABAC : Yes
Format settings, RefFrames : 5 frames
Codec ID : V_MPEG4/ISO/AVC
Duration : 55 min 35 s
Bit rate : 1 773 kb/s
Width : 1 280 pixels
Height : 720 pixels
Display aspect ratio : 16:9
Frame rate mode : Constant
Frame rate : 23.976 FPS
Color space : YUV
Chroma subsampling : 4:2:0
Bit depth : 8 bits
Scan type : Progressive
Bits/(Pixel*Frame) : 0.080
Stream size : 705 MiB (96%)
Default : Yes
Forced : No

Audio
ID : 2
Format : AAC
Format/Info : Advanced Audio Codec
Format profile : HE-AAC / LC
Format settings : Explicit
Codec ID : A_AAC-2
Duration : 55 min 35 s
Bit rate : 64.0 kb/s
Channel(s) : 2 channels
Channel positions : Front: L R
Sampling rate : 48.0 kHz / 24.0 kHz
Frame rate : 23.438 FPS (1024 SPF)
Compression mode : Lossy
Stream size : 25.5 MiB (3%)
Default : Yes
Forced : No

Text #1
ID : 3
Format : UTF-8
Codec ID : S_TEXT/UTF8
Codec ID/Info : UTF-8 Plain Text
Duration : 55 min 27 s
Bit rate : 77 b/s
Count of elements : 1148
Stream size : 31.4 KiB (0%)
Language : English
Default : No
Forced : No

Text #2
ID : 4
Format : UTF-8
Codec ID : S_TEXT/UTF8
Codec ID/Info : UTF-8 Plain Text
Duration : 55 min 25 s
Bit rate : 73 b/s
Count of elements : 1114
Stream size : 29.9 KiB (0%)
Language : Spanish
Default : No
Forced : No

Menu
00:00:00.000 : en:Chapter 1
00:21:54.791 : en:Chapter 2
00:31:11.333 : en:Chapter 3
00:43:11.083 : en:Chapter 4





The Path S03E13


The Path S03E13


The Path S03E13


The Path S03E13


The Path S03E13

All episodes