Featured TV Shows


The Path S03E12

Posted By: Tavaz
720p (HD) / WEBRip IMDb
The Path S03E12

The Path S03E12
WEB-DL | MKV | 1280x720 | German / English | H264 @ 2234 kbps | AC-3 @ 640 kbps | 51 min 21 s | 1.26 GiB
Subtitles: English
Genre: Drama, Mystery

Sarah Cleary, ein hochrangiges Mitglied einer religiösen Sekte, muss einen Weg durch die Wahrheiten und Lügen finden, die in ihrem Leben aufeinander prallen. Ihr Ehemann Eddie durchlebt eine Glaubenskrise, nachdem er erleben musste, dass alles, was er für die Wahrheit in seinem Leben gehalten hatte, grundlegend in Frage gestellt wurde.

the.path.s03e12.german.dl.dubbed.720p.webhd.x264-tvnation.sample.mkv (23.2 MB)
The.Path.S03E12.German.DL.DUBBED.720p.WebHD.x264-TVNATiON.mkv (1.3 GB)



General
Unique ID : 252403193390708184489206345900573638762 (0xBDE31639E6E24D65829B59F68D90C06A)
Complete name : ./The.Path.S03E12.German.DL.DUBBED.720p.WebHD.x264-TVNATiON.mkv
Format : Matroska
Format version : Version 4 / Version 2
File size : 1.26 GiB
Duration : 51 min 21 s
Overall bit rate mode : Variable
Overall bit rate : 3 516 kb/s
Encoded date : UTC 2018-05-01 10:40:37
Writing application : mkvmerge v8.3.0 ('Over the Horizon') 64bit
Writing library : libebml v1.3.1 + libmatroska v1.4.2

Video
ID : 1
Format : AVC
Format/Info : Advanced Video Codec
Format profile : High@L3.1
Format settings : CABAC / 5 Ref Frames
Format settings, CABAC : Yes
Format settings, RefFrames : 5 frames
Codec ID : V_MPEG4/ISO/AVC
Duration : 51 min 21 s
Bit rate mode : Variable
Bit rate : 2 234 kb/s
Maximum bit rate : 4 500 kb/s
Width : 1 280 pixels
Height : 720 pixels
Display aspect ratio : 16:9
Frame rate mode : Constant
Frame rate : 23.976 (24000/1001) FPS
Color space : YUV
Chroma subsampling : 4:2:0
Bit depth : 8 bits
Scan type : Progressive
Bits/(Pixel*Frame) : 0.101
Stream size : 821 MiB (64%)
Language : English
Default : Yes
Forced : No
Color range : Limited
Color primaries : BT.709
Transfer characteristics : BT.709
Matrix coefficients : BT.709

Audio #1
ID : 2
Format : AC-3
Format/Info : Audio Coding 3
Format settings, Endianness : Big
Codec ID : A_AC3
Duration : 51 min 21 s
Bit rate mode : Constant
Bit rate : 640 kb/s
Channel(s) : 6 channels
Channel positions : Front: L C R, Side: L R, LFE
Sampling rate : 48.0 kHz
Frame rate : 31.250 FPS (1536 SPF)
Bit depth : 16 bits
Compression mode : Lossy
Stream size : 235 MiB (18%)
Language : German
Service kind : Complete Main
Default : Yes
Forced : No

Audio #2
ID : 3
Format : E-AC-3
Format/Info : Enhanced Audio Coding 3
Format settings, Endianness : Big
Codec ID : A_EAC3
Duration : 51 min 21 s
Bit rate mode : Constant
Bit rate : 640 kb/s
Channel(s) : 6 channels
Channel positions : Front: L C R, Side: L R, LFE
Sampling rate : 48.0 kHz
Frame rate : 187.500 FPS (256 SPF)
Compression mode : Lossy
Stream size : 235 MiB (18%)
Language : English
Service kind : Complete Main
Default : No
Forced : No

Text
ID : 4
Format : UTF-8
Codec ID : S_TEXT/UTF8
Codec ID/Info : UTF-8 Plain Text
Duration : 51 min 6 s
Bit rate : 71 b/s
Count of elements : 913
Stream size : 26.7 KiB (0%)
Title : English
Language : English
Default : No
Forced : No





The Path S03E12


The Path S03E12


The Path S03E12


The Path S03E12


The Path S03E12

All episodes