Featured TV Shows


The Path S03E08

Posted By: Tavaz
SD / WEBRip IMDb
The Path S03E08

The Path S03E08
WEBRip | MKV | 704x396 | German | H264 @ 624 kbps | AC-3 @ 384 kbps | 52 min 18 s | 378 MiB
Subtitles: English
Genre: Drama, Mystery

The Path explores the unknown and mysterious world of the cult-like Meyerist Movement in upstate New York. At the center of the movement lies Eddie, a conflicted husband; Sarah, his devoted wife; and Cal, an ambitious leader. We follow each as they contend with deep issues involving relationships, faith, and power.

The.Path.S03E08.German.DUBBED.WebRip.x264-TVNATiON.mkv (377.8 MB)
the.path.s03e08.german.dubbed.webrip.x264-tvnation.sample.mkv (7.3 MB)



General
Unique ID : 241561539445946798384172085400541293680 (0xB5BB0F6AC856A14E8FDB7634990B6C70)
Complete name : ./The.Path.S03E08.German.DUBBED.WebRip.x264-TVNATiON.mkv
Format : Matroska
Format version : Version 4 / Version 2
File size : 378 MiB
Duration : 52 min 18 s
Overall bit rate : 1 010 kb/s
Encoded date : UTC 2018-05-01 10:28:13
Writing application : mkvmerge v8.3.0 ('Over the Horizon') 64bit
Writing library : libebml v1.3.1 + libmatroska v1.4.2

Video
ID : 1
Format : AVC
Format/Info : Advanced Video Codec
Format profile : High@L3
Format settings : CABAC / 5 Ref Frames
Format settings, CABAC : Yes
Format settings, RefFrames : 5 frames
Codec ID : V_MPEG4/ISO/AVC
Duration : 52 min 18 s
Bit rate : 624 kb/s
Width : 704 pixels
Height : 396 pixels
Display aspect ratio : 16:9
Frame rate mode : Constant
Frame rate : 23.976 (24000/1001) FPS
Color space : YUV
Chroma subsampling : 4:2:0
Bit depth : 8 bits
Scan type : Progressive
Bits/(Pixel*Frame) : 0.093
Stream size : 233 MiB (62%)
Language : English
Default : Yes
Forced : No

Audio
ID : 2
Format : AC-3
Format/Info : Audio Coding 3
Format settings, Endianness : Big
Codec ID : A_AC3
Duration : 52 min 18 s
Bit rate mode : Constant
Bit rate : 384 kb/s
Channel(s) : 6 channels
Channel positions : Front: L C R, Side: L R, LFE
Sampling rate : 48.0 kHz
Frame rate : 31.250 FPS (1536 SPF)
Bit depth : 16 bits
Compression mode : Lossy
Delay relative to video : -83 ms
Stream size : 144 MiB (38%)
Language : German
Service kind : Complete Main
Default : Yes
Forced : No

Text
ID : 3
Format : UTF-8
Codec ID : S_TEXT/UTF8
Codec ID/Info : UTF-8 Plain Text
Duration : 52 min 9 s
Bit rate : 81 b/s
Count of elements : 976
Stream size : 31.1 KiB (0%)
Language : English
Default : No
Forced : No





The Path S03E08


The Path S03E08


The Path S03E08


The Path S03E08


The Path S03E08

All episodes