Featured TV Shows


The Path S03E12

Posted By: Tavaz
SD / WEBRip IMDb
The Path S03E12

The Path S03E12
WEBRip | MKV | 720x480 | German | H264 @ 558 kbps | AC-3 @ 384 kbps | 51 min 21 s | 347 MiB
Subtitles: English
Genre: Drama, Mystery

Sarah Cleary, ein hochrangiges Mitglied einer religiösen Sekte, muss einen Weg durch die Wahrheiten und Lügen finden, die in ihrem Leben aufeinander prallen. Ihr Ehemann Eddie durchlebt eine Glaubenskrise, nachdem er erleben musste, dass alles, was er für die Wahrheit in seinem Leben gehalten hatte, grundlegend in Frage gestellt wurde.

the.path.s03e12.german.dubbed.webrip.x264-tvnation.sample.mkv (6.4 MB)
The.Path.S03E12.German.DUBBED.WebRip.x264-TVNATiON.mkv (346.9 MB)



General
Unique ID : 225051811056250558961154503898506144810 (0xA94F66F6436D95658E4558B57C032C2A)
Complete name : ./The.Path.S03E12.German.DUBBED.WebRip.x264-TVNATiON.mkv
Format : Matroska
Format version : Version 4 / Version 2
File size : 347 MiB
Duration : 51 min 21 s
Overall bit rate mode : Variable
Overall bit rate : 944 kb/s
Encoded date : UTC 2018-05-01 10:29:00
Writing application : mkvmerge v8.3.0 ('Over the Horizon') 64bit
Writing library : libebml v1.3.1 + libmatroska v1.4.2

Video
ID : 1
Format : AVC
Format/Info : Advanced Video Codec
Format profile : High@L3
Format settings : CABAC / 5 Ref Frames
Format settings, CABAC : Yes
Format settings, RefFrames : 5 frames
Codec ID : V_MPEG4/ISO/AVC
Duration : 51 min 21 s
Bit rate mode : Variable
Bit rate : 559 kb/s
Maximum bit rate : 2 400 kb/s
Width : 720 pixels
Height : 480 pixels
Display aspect ratio : 16:9
Frame rate mode : Constant
Frame rate : 23.976 (24000/1001) FPS
Color space : YUV
Chroma subsampling : 4:2:0
Bit depth : 8 bits
Scan type : Progressive
Bits/(Pixel*Frame) : 0.067
Stream size : 205 MiB (59%)
Language : English
Default : Yes
Forced : No
Color range : Limited
Color primaries : BT.709
Transfer characteristics : BT.709
Matrix coefficients : BT.709

Audio
ID : 2
Format : AC-3
Format/Info : Audio Coding 3
Format settings, Endianness : Big
Codec ID : A_AC3
Duration : 51 min 21 s
Bit rate mode : Constant
Bit rate : 384 kb/s
Channel(s) : 6 channels
Channel positions : Front: L C R, Side: L R, LFE
Sampling rate : 48.0 kHz
Frame rate : 31.250 FPS (1536 SPF)
Bit depth : 16 bits
Compression mode : Lossy
Stream size : 141 MiB (41%)
Language : German
Service kind : Complete Main
Default : Yes
Forced : No

Text
ID : 3
Format : UTF-8
Codec ID : S_TEXT/UTF8
Codec ID/Info : UTF-8 Plain Text
Duration : 51 min 6 s
Bit rate : 71 b/s
Count of elements : 913
Stream size : 26.7 KiB (0%)
Title : English
Language : English
Default : No
Forced : No





The Path S03E12


The Path S03E12


The Path S03E12


The Path S03E12


The Path S03E12

All episodes