Featured TV Shows


The Path S03E11

Posted By: Tavaz
1080p (FullHD) / WEBRip IMDb
The Path S03E11

The Path S03E11
WEB-DL | MKV | 1920x1080 | German / English | H264 @ 6204 kbps | AC-3 @ 640 kbps | 49 min 27 s | 2.59 GiB
Subtitles: English
Genre: Drama, Mystery

Sarah Cleary, ein hochrangiges Mitglied einer religiösen Sekte, muss einen Weg durch die Wahrheiten und Lügen finden, die in ihrem Leben aufeinander prallen. Ihr Ehemann Eddie durchlebt eine Glaubenskrise, nachdem er erleben musste, dass alles, was er für die Wahrheit in seinem Leben gehalten hatte, grundlegend in Frage gestellt wurde.

The.Path.S03E11.German.DL.DUBBED.1080p.WebHD.x264-TVNATiON.mkv (2.6 GB)
the.path.s03e11.german.dl.dubbed.1080p.webhd.x264-tvnation.sample.mkv (51.4 MB)



General
Unique ID : 198171692180397181334793295595465288719 (0x95167AC7B8C2FC29B5CE8007B22F2C0F)
Complete name : ./The.Path.S03E11.German.DL.DUBBED.1080p.WebHD.x264-TVNATiON.mkv
Format : Matroska
Format version : Version 4 / Version 2
File size : 2.59 GiB
Duration : 49 min 27 s
Overall bit rate mode : Variable
Overall bit rate : 7 487 kb/s
Encoded date : UTC 2018-05-01 10:53:47
Writing application : mkvmerge v8.3.0 ('Over the Horizon') 64bit
Writing library : libebml v1.3.1 + libmatroska v1.4.2

Video
ID : 1
Format : AVC
Format/Info : Advanced Video Codec
Format profile : High@L4
Format settings : CABAC / 4 Ref Frames
Format settings, CABAC : Yes
Format settings, RefFrames : 4 frames
Codec ID : V_MPEG4/ISO/AVC
Duration : 49 min 27 s
Bit rate mode : Variable
Bit rate : 6 205 kb/s
Maximum bit rate : 15.0 Mb/s
Width : 1 920 pixels
Height : 1 080 pixels
Display aspect ratio : 16:9
Frame rate mode : Constant
Frame rate : 23.976 (24000/1001) FPS
Color space : YUV
Chroma subsampling : 4:2:0
Bit depth : 8 bits
Scan type : Progressive
Bits/(Pixel*Frame) : 0.125
Stream size : 2.14 GiB (83%)
Language : English
Default : Yes
Forced : No
Color range : Limited
Color primaries : BT.709
Transfer characteristics : BT.709
Matrix coefficients : BT.709

Audio #1
ID : 2
Format : AC-3
Format/Info : Audio Coding 3
Format settings, Endianness : Big
Codec ID : A_AC3
Duration : 49 min 27 s
Bit rate mode : Constant
Bit rate : 640 kb/s
Channel(s) : 6 channels
Channel positions : Front: L C R, Side: L R, LFE
Sampling rate : 48.0 kHz
Frame rate : 31.250 FPS (1536 SPF)
Bit depth : 16 bits
Compression mode : Lossy
Stream size : 226 MiB (9%)
Language : German
Service kind : Complete Main
Default : Yes
Forced : No

Audio #2
ID : 3
Format : E-AC-3
Format/Info : Enhanced Audio Coding 3
Format settings, Endianness : Big
Codec ID : A_EAC3
Duration : 49 min 27 s
Bit rate mode : Constant
Bit rate : 640 kb/s
Channel(s) : 6 channels
Channel positions : Front: L C R, Side: L R, LFE
Sampling rate : 48.0 kHz
Frame rate : 187.500 FPS (256 SPF)
Compression mode : Lossy
Stream size : 226 MiB (9%)
Language : English
Service kind : Complete Main
Default : No
Forced : No

Text
ID : 4
Format : UTF-8
Codec ID : S_TEXT/UTF8
Codec ID/Info : UTF-8 Plain Text
Duration : 48 min 33 s
Bit rate : 64 b/s
Count of elements : 888
Stream size : 23.1 KiB (0%)
Title : English
Language : English
Default : No
Forced : No





The Path S03E11


The Path S03E11


The Path S03E11


The Path S03E11


The Path S03E11

All episodes