Featured TV Shows


The Path S03E08

Posted By: Tavaz
1080p (FullHD) / WEBRip IMDb
The Path S03E08

The Path S03E08
WEB-DL | MKV | 1920x1080 | German / English | H264 @ 6530 kbps | AC-3 @ 640 kbps | 52 min 18 s | 2.85 GiB
Subtitles: English
Genre: Drama, Mystery

The Path explores the unknown and mysterious world of the cult-like Meyerist Movement in upstate New York. At the center of the movement lies Eddie, a conflicted husband; Sarah, his devoted wife; and Cal, an ambitious leader. We follow each as they contend with deep issues involving relationships, faith, and power.

the.path.s03e08.german.dl.dubbed.1080p.webhd.x264-tvnation.sample.mkv (49.4 MB)
The.Path.S03E08.German.DL.DUBBED.1080p.WebHD.x264-TVNATiON.mkv (2.9 GB)



General
Unique ID : 231032941530544484038423498716187992174 (0xADCF5376443B9D0C98DBA0661C90206E)
Complete name : ./The.Path.S03E08.German.DL.DUBBED.1080p.WebHD.x264-TVNATiON.mkv
Format : Matroska
Format version : Version 4 / Version 2
File size : 2.85 GiB
Duration : 52 min 18 s
Overall bit rate mode : Variable
Overall bit rate : 7 813 kb/s
Encoded date : UTC 2018-05-01 10:46:39
Writing application : mkvmerge v8.3.0 ('Over the Horizon') 64bit
Writing library : libebml v1.3.1 + libmatroska v1.4.2

Video
ID : 1
Format : AVC
Format/Info : Advanced Video Codec
Format profile : High@L4
Format settings : CABAC / 4 Ref Frames
Format settings, CABAC : Yes
Format settings, RefFrames : 4 frames
Codec ID : V_MPEG4/ISO/AVC
Duration : 52 min 18 s
Bit rate mode : Variable
Bit rate : 6 531 kb/s
Maximum bit rate : 15.0 Mb/s
Width : 1 920 pixels
Height : 1 080 pixels
Display aspect ratio : 16:9
Frame rate mode : Constant
Frame rate : 23.976 (24000/1001) FPS
Color space : YUV
Chroma subsampling : 4:2:0
Bit depth : 8 bits
Scan type : Progressive
Bits/(Pixel*Frame) : 0.131
Stream size : 2.39 GiB (84%)
Language : English
Default : Yes
Forced : No
Color range : Limited
Color primaries : BT.709
Transfer characteristics : BT.709
Matrix coefficients : BT.709

Audio #1
ID : 2
Format : AC-3
Format/Info : Audio Coding 3
Format settings, Endianness : Big
Codec ID : A_AC3
Duration : 52 min 18 s
Bit rate mode : Constant
Bit rate : 640 kb/s
Channel(s) : 6 channels
Channel positions : Front: L C R, Side: L R, LFE
Sampling rate : 48.0 kHz
Frame rate : 31.250 FPS (1536 SPF)
Bit depth : 16 bits
Compression mode : Lossy
Stream size : 239 MiB (8%)
Language : German
Service kind : Complete Main
Default : Yes
Forced : No

Audio #2
ID : 3
Format : E-AC-3
Format/Info : Enhanced Audio Coding 3
Format settings, Endianness : Big
Codec ID : A_EAC3
Duration : 52 min 18 s
Bit rate mode : Constant
Bit rate : 640 kb/s
Channel(s) : 6 channels
Channel positions : Front: L C R, Side: L R, LFE
Sampling rate : 48.0 kHz
Frame rate : 187.500 FPS (256 SPF)
Compression mode : Lossy
Stream size : 239 MiB (8%)
Language : English
Service kind : Complete Main
Default : No
Forced : No

Text
ID : 4
Format : UTF-8
Codec ID : S_TEXT/UTF8
Codec ID/Info : UTF-8 Plain Text
Duration : 52 min 3 s
Bit rate : 73 b/s
Count of elements : 921
Stream size : 28.2 KiB (0%)
Title : English
Language : English
Default : No
Forced : No





The Path S03E08


The Path S03E08


The Path S03E08


The Path S03E08


The Path S03E08

All episodes