Featured TV Shows


The Path S03E10

Posted By: Tavaz
720p (HD) / WEBRip IMDb
The Path S03E10

The Path S03E10
WEB-DL | MKV | 1280x720 | German / English | H264 @ 2118 kbps | AC-3 @ 640 kbps | 51 min 32 s | 1.22 GiB
Subtitles: English
Genre: Drama, Mystery

Sarah Cleary, ein hochrangiges Mitglied einer religiösen Sekte, muss einen Weg durch die Wahrheiten und Lügen finden, die in ihrem Leben aufeinander prallen. Ihr Ehemann Eddie durchlebt eine Glaubenskrise, nachdem er erleben musste, dass alles, was er für die Wahrheit in seinem Leben gehalten hatte, grundlegend in Frage gestellt wurde.

The.Path.S03E10.German.DL.DUBBED.720p.WebHD.x264-TVNATiON.mkv (1.2 GB)
the.path.s03e10.german.dl.dubbed.720p.webhd.x264-tvnation.sample.mkv (19.9 MB)



General
Unique ID : 201096124894745168852765017157197323998 (0x9749B471EF3B777BBD4F73D308A35EDE)
Complete name : ./The.Path.S03E10.German.DL.DUBBED.720p.WebHD.x264-TVNATiON.mkv
Format : Matroska
Format version : Version 4 / Version 2
File size : 1.22 GiB
Duration : 51 min 32 s
Overall bit rate mode : Variable
Overall bit rate : 3 401 kb/s
Encoded date : UTC 2018-05-01 10:38:24
Writing application : mkvmerge v8.3.0 ('Over the Horizon') 64bit
Writing library : libebml v1.3.1 + libmatroska v1.4.2

Video
ID : 1
Format : AVC
Format/Info : Advanced Video Codec
Format profile : High@L3.1
Format settings : CABAC / 5 Ref Frames
Format settings, CABAC : Yes
Format settings, RefFrames : 5 frames
Codec ID : V_MPEG4/ISO/AVC
Duration : 51 min 32 s
Bit rate mode : Variable
Bit rate : 2 118 kb/s
Maximum bit rate : 4 500 kb/s
Width : 1 280 pixels
Height : 720 pixels
Display aspect ratio : 16:9
Frame rate mode : Constant
Frame rate : 23.976 (24000/1001) FPS
Color space : YUV
Chroma subsampling : 4:2:0
Bit depth : 8 bits
Scan type : Progressive
Bits/(Pixel*Frame) : 0.096
Stream size : 781 MiB (62%)
Language : English
Default : Yes
Forced : No
Color range : Limited
Color primaries : BT.709
Transfer characteristics : BT.709
Matrix coefficients : BT.709

Audio #1
ID : 2
Format : AC-3
Format/Info : Audio Coding 3
Format settings, Endianness : Big
Codec ID : A_AC3
Duration : 51 min 31 s
Bit rate mode : Constant
Bit rate : 640 kb/s
Channel(s) : 6 channels
Channel positions : Front: L C R, Side: L R, LFE
Sampling rate : 48.0 kHz
Frame rate : 31.250 FPS (1536 SPF)
Bit depth : 16 bits
Compression mode : Lossy
Stream size : 236 MiB (19%)
Language : German
Service kind : Complete Main
Default : Yes
Forced : No

Audio #2
ID : 3
Format : E-AC-3
Format/Info : Enhanced Audio Coding 3
Format settings, Endianness : Big
Codec ID : A_EAC3
Duration : 51 min 31 s
Bit rate mode : Constant
Bit rate : 640 kb/s
Channel(s) : 6 channels
Channel positions : Front: L C R, Side: L R, LFE
Sampling rate : 48.0 kHz
Frame rate : 187.500 FPS (256 SPF)
Compression mode : Lossy
Stream size : 236 MiB (19%)
Language : English
Service kind : Complete Main
Default : No
Forced : No

Text
ID : 4
Format : UTF-8
Codec ID : S_TEXT/UTF8
Codec ID/Info : UTF-8 Plain Text
Duration : 50 min 26 s
Bit rate : 68 b/s
Count of elements : 827
Stream size : 25.1 KiB (0%)
Title : English
Language : English
Default : No
Forced : No





The Path S03E10


The Path S03E10


The Path S03E10


The Path S03E10


The Path S03E10

All episodes