Featured TV Shows


The Path S03E12

Posted By: Tavaz
1080p (FullHD) / WEB-DL IMDb
The Path S03E12

The Path S03E12
WEB-DL | MKV | 1920x1080 | English | H264 @ 4486 kbps | AAC @ 63 kbps | 51 min 21 s | 1.63 GiB
Subtitles: Spanish, English
Genre: Drama, Mystery

The Path explores the unknown and mysterious world of the cult-like Meyerist Movement in upstate New York. At the center of the movement lies Eddie, a conflicted husband; Sarah, his devoted wife; and Cal, an ambitious leader. We follow each as they contend with deep issues involving relationships, faith, and power.

0ad7e98089f54c61b30a8c3c41cfb3bc.mkv (1.6 GB)



General
Complete name : ./0ad7e98089f54c61b30a8c3c41cfb3bc.mkv
Format : Matroska
Format version : Version 4 / Version 2
File size : 1.63 GiB
Duration : 51 min 21 s
Overall bit rate : 4 553 kb/s
Encoded date : UTC 2018-03-21 13:05:21
Writing application : mkvmerge v9.5.0 ('Quiet Fire') 32bit
Writing library : libebml v1.3.4 + libmatroska v1.4.5

Video
ID : 1
Format : AVC
Format/Info : Advanced Video Codec
Format profile : High@L4
Format settings : CABAC / 4 Ref Frames
Format settings, CABAC : Yes
Format settings, RefFrames : 4 frames
Codec ID : V_MPEG4/ISO/AVC
Duration : 51 min 21 s
Bit rate : 4 487 kb/s
Width : 1 920 pixels
Height : 1 080 pixels
Display aspect ratio : 16:9
Frame rate mode : Constant
Frame rate : 23.976 (24000/1001) FPS
Color space : YUV
Chroma subsampling : 4:2:0
Bit depth : 8 bits
Scan type : Progressive
Bits/(Pixel*Frame) : 0.090
Stream size : 1.61 GiB (99%)
Default : Yes
Forced : No

Audio
ID : 2
Format : AAC
Format/Info : Advanced Audio Codec
Format profile : HE-AAC / LC
Format settings : Explicit
Codec ID : A_AAC-2
Duration : 51 min 21 s
Bit rate : 64.0 kb/s
Channel(s) : 2 channels
Channel positions : Front: L R
Sampling rate : 48.0 kHz / 24.0 kHz
Frame rate : 23.438 FPS (1024 SPF)
Compression mode : Lossy
Stream size : 23.5 MiB (1%)
Default : Yes
Forced : No

Text #1
ID : 3
Format : UTF-8
Codec ID : S_TEXT/UTF8
Codec ID/Info : UTF-8 Plain Text
Duration : 51 min 13 s
Bit rate : 79 b/s
Count of elements : 960
Stream size : 29.7 KiB (0%)
Language : English
Default : No
Forced : No

Text #2
ID : 4
Format : UTF-8
Codec ID : S_TEXT/UTF8
Codec ID/Info : UTF-8 Plain Text
Duration : 50 min 21 s
Bit rate : 75 b/s
Count of elements : 900
Stream size : 27.9 KiB (0%)
Language : Spanish
Default : No
Forced : No

Menu
00:00:00.000 : en:Chapter 1
00:11:12.291 : en:Chapter 2
00:21:43.625 : en:Chapter 3
00:31:32.833 : en:Chapter 4
00:42:48.541 : en:Chapter 5





The Path S03E12


The Path S03E12


The Path S03E12


The Path S03E12


The Path S03E12

All episodes