Subcategories

Kaoma - World Beat (1989) Japanese Press

Posted By: Designol
Kaoma - World Beat (1989) Japanese Press

Kaoma - WorldBeat (1989) Japanese Press
EAC | FLAC | Image (Cue&Log) ~ 295 Mb | Mp3 (CBR320) ~ 97 Mb | Scans ~ 124 Mb
Latin Pop, Lambada, Samba, Salsa | Label: Epic | # ESCA 5081 | Time: 00:42:21

Worldbeat is a 1989 album recorded by Kaoma. It was the band's debut album and provided three hit singles, two of them achieving success worldwide: "Lambada", "Dançando Lambada" and "Mélodie d'amour". The album is composed of songs in Portuguese, Spanish and English. It was ranked in the top 25 in Switzerland, Germany, Norway, Australia and Austria. It topped the Billboard Latin Pop in the U.S.

Because the lambada – an erotic Brazilian dance craze – was hyped to death in the late 1980s and early '90s, it didn't take long before a backlash took place in the U.S. But in fact, much of the music that accompanied the lambada was of a high quality. One group that illustrated how fresh-sounding lambada music could be was Kaoma, a Paris-based group that sings in Portugese, Spanish and English on World Beat. Not outstanding but definitely appealing, this CD effectively combines South American elements with dance music/disco, reggae and hip-hop. One hears Chic's influence on the funky "Sopenala." Kaoma's sensuous, haunting music underscores the fact that lambada's roots were not only Brazilian, but also Bolivian and proves that lambada was more than hype.

Review by Alex Henderson, Allmusic.com

Kaoma at Wiki
Loalwa Braz at Wiki

Tracklist:

01. Lambada (03:28)
02. Lambareggae (03:53)
03. Dançando Lambada (04:46)
04. Lambamor (04:11)
05. Lamba Caribe (04:09)
06. Mélodie D'Amour (04:14)
07. Sindiang (04:00)
08. Sopenala (04:30)
09. Jambé Finète (Grille) (04:28)
10. Salsa Nuestra (04:38)


Exact Audio Copy V0.99 prebeta 5 from 4. May 2009

EAC extraction logfile from 22. July 2009, 19:47

Kaoma / World Beat

Used drive : ASUS DRW-1608P Adapter: 2 ID: 0

Read mode : Secure
Utilize accurate stream : Yes
Defeat audio cache : Yes
Make use of C2 pointers : No

Read offset correction : 48
Overread into Lead-In and Lead-Out : No
Fill up missing offset samples with silence : Yes
Delete leading and trailing silent blocks : No
Null samples used in CRC calculations : Yes
Used interface : Installed external ASPI interface

Used output format : User Defined Encoder
Selected bitrate : 1024 kBit/s
Quality : High
Add ID3 tag : No
Command line compressor : C:\Program Files (x86)\Exact Audio Copy\Flac\flac.exe
Additional command line options : -5 -V -T "ARTIST=%a" -T "TITLE=%t" -T "ALBUM=%g" -T "DATE=%y" -T "TRACKNUMBER=%n" -T "GENRE=%m" -T "COMMENT=EAC FLAC -5" %s


TOC of the extracted CD

Track | Start | Length | Start sector | End sector
––––––––––––––––––––––––––––-
1 | 0:00.00 | 3:28.60 | 0 | 15659
2 | 3:28.60 | 3:53.62 | 15660 | 33196
3 | 7:22.47 | 4:46.05 | 33197 | 54651
4 | 12:08.52 | 4:11.00 | 54652 | 73476
5 | 16:19.52 | 4:09.03 | 73477 | 92154
6 | 20:28.55 | 4:14.50 | 92155 | 111254
7 | 24:43.30 | 4:00.15 | 111255 | 129269
8 | 28:43.45 | 4:30.62 | 129270 | 149581
9 | 33:14.32 | 4:28.23 | 149582 | 169704
10 | 37:42.55 | 4:38.25 | 169705 | 190579


Range status and errors

Selected range

Filename F:\Kaoma - 1989 (Japan)\Kaoma - World Beat.wav

Peak level 97.8 %
Range quality 100.0 %
Test CRC B77C84B6
Copy CRC B77C84B6
Copy OK

No errors occurred


AccurateRip summary

Track 1 cannot be verified as accurate (confidence 1) [6D17D849], AccurateRip returned [966BDCC8]
Track 2 cannot be verified as accurate (confidence 1) [1D340E88], AccurateRip returned [DF965CB8]
Track 3 cannot be verified as accurate (confidence 1) [1E05ADA8], AccurateRip returned [EEDD6A81]
Track 4 cannot be verified as accurate (confidence 1) [AD672916], AccurateRip returned [0D5427EE]
Track 5 cannot be verified as accurate (confidence 1) [CBB5A1B8], AccurateRip returned [E14535A0]
Track 6 cannot be verified as accurate (confidence 1) [A8444911], AccurateRip returned [2282680B]
Track 7 cannot be verified as accurate (confidence 1) [D2CD8BE7], AccurateRip returned [99C3BF2C]
Track 8 cannot be verified as accurate (confidence 1) [F99E805E], AccurateRip returned [1D1B6092]
Track 9 cannot be verified as accurate (confidence 1) [61895EE6], AccurateRip returned [8860C64C]
Track 10 cannot be verified as accurate (confidence 1) [47F8BEEE], AccurateRip returned [25D195A4]

No tracks could be verified as accurate
You may have a different pressing from the one(s) in the database

End of status report

[CUETools log; Date: 19.01.2017 22:47:35; Version: 2.1.4]
[CTDB TOCID: PQbzCdLZpY6pyZ7pLhqBamCKDZA-] found.
Track | CTDB Status
1 | (13/13) Accurately ripped
2 | (13/13) Accurately ripped
3 | (13/13) Accurately ripped
4 | (13/13) Accurately ripped
5 | (13/13) Accurately ripped
6 | (13/13) Accurately ripped
7 | (13/13) Accurately ripped
8 | (13/13) Accurately ripped
9 | (13/13) Accurately ripped
10 | (13/13) Accurately ripped
[AccurateRip ID: 000f8e8d-007d76f0-7b09ed0a] found.
Track [ CRC | V2 ] Status
01 [6d17d849|35e3e5df] (2+5/7) Accurately ripped
02 [1d340e88|717a9add] (2+5/7) Accurately ripped
03 [1e05ada8|31a6d2dd] (2+5/7) Accurately ripped
04 [ad672916|2774b717] (2+5/7) Accurately ripped
05 [cbb5a1b8|00364835] (2+5/7) Accurately ripped
06 [a8444911|e86b92e0] (2+5/7) Accurately ripped
07 [d2cd8be7|7013b001] (2+5/7) Accurately ripped
08 [f99e805e|dbe2e270] (2+5/7) Accurately ripped
09 [61895ee6|92e2347f] (2+5/7) Accurately ripped
10 [47f8beee|2b0e78f0] (2+5/7) Accurately ripped

Track Peak [ CRC32 ] [W/O NULL] [ LOG ]
– 97,8 [B77C84B6] [245D320D] CRC32
01 97,4 [766AA95D] [4C7B98A9]
02 97,4 [11350A74] [AAA65C6A]
03 97,4 [77BB2556] [AA303B53]
04 97,4 [AD0D0ECF] [CBF2F6E6]
05 97,4 [8633D192] [16DBDDBB]
06 97,8 [A5A081D9] [A170B64E]
07 97,8 [5DC6C45B] [B9128FC2]
08 97,8 [3DFA0F1A] [EA2F75E7]
09 97,8 [FEA44C26] [AF85CC30]
10 97,8 [D1A1B322] [4CB93FFE]

foobar2000 1.2 / Dynamic Range Meter 1.1.1
log date: 2017-01-19 22:48:32

––––––––––––––––––––––––––––––––––––––––
Analyzed: Kaoma / World Beat
––––––––––––––––––––––––––––––––––––––––

DR Peak RMS Duration Track
––––––––––––––––––––––––––––––––––––––––
DR11 -0.23 dB -12.69 dB 3:29 01-Lambada
DR12 -0.23 dB -13.28 dB 3:54 02-Lambareggae
DR12 -0.23 dB -13.12 dB 4:46 03-Dancando Lambada
DR12 -0.23 dB -13.70 dB 4:11 04-Lambamor
DR13 -0.23 dB -13.87 dB 4:09 05-Lamba Caribe
DR13 -0.19 dB -14.38 dB 4:15 06-Melodie D'Amour
DR12 -0.19 dB -13.18 dB 4:00 07-Sindiang
DR15 -0.19 dB -16.31 dB 4:31 08-Sopenala
DR13 -0.19 dB -13.97 dB 4:28 09-Jambe Finete (Grille)
DR13 -0.19 dB -14.17 dB 4:38 10-Salsa Nuestra
––––––––––––––––––––––––––––––––––––––––

Number of tracks: 10
Official DR value: DR12

Samplerate: 44100 Hz
Channels: 2
Bits per sample: 16
Bitrate: 975 kbps
Codec: FLAC
================================================================================

Kaoma - World Beat (1989) Japanese Press

Kaoma - World Beat (1989) Japanese Press

All thanks to original releaser - bvstudio

More interesting music in My Blog