Subcategories

The Black Eyed Peas - Translation (2020)

Posted By: delpotro
The Black Eyed Peas - Translation (2020)

The Black Eyed Peas - Translation (2020)
EAC Rip | FLAC (tracks+log+.cue) - 361 Mb | MP3 CBR 320 kbps - 156 Mb | Covers included | 00:56:26
Pop, Hip-Hop, Reggaeton | Label: Epic Records

No matter how long they’ve been out of the spotlight, nobody should ever have underestimated the hitmaking machine known as the Black Eyed Peas. Putting aside 2018’s MASTERS OF THE SUN VOL. 1—a low-key project that revisited the group’s hip-hop roots without facing the commercial pressure of following up 2010’s presumed farewell The Beginning—this multilingual comeback effort revives their maximalist dance-floor appeal with some help from a fresh set of contemporary stars. With Fergie out of the picture, the majority of the vocal guests here come from Latin America, dutifully representing the reggaetón and Spanish-language pop boom of the moment. The massively successful throwback single “RITMO (Bad Boys for Life)” aligns them with global superstar J Balvin, while Dominican dembow sensation El Alfa brings his signature energy to the throbbing “NO MAÑANA”.
Tracklist:
1. Black Eyed Peas & J Balvin – RITMO (Bad Boys For Life) (03:34)
2. Black Eyed Peas & Maluma – FEEL THE BEAT (03:57)
3. Black Eyed Peas, Ozuna & J. Rey Soul – MAMACITA (04:11)
4. Black Eyed Peas & Shakira – GIRL LIKE ME (03:42)
5. Black Eyed Peas, Nicky Jam & Tyga – VIDA LOCA (03:54)
6. Black Eyed Peas & El Alfa – NO MAÑANA (03:41)
7. Black Eyed Peas & J. Rey Soul – TONTA LOVE (03:50)
8. Black Eyed Peas – CELEBRATE (03:39)
9. Black Eyed Peas & Piso 21 – TODO BUENO (03:50)
10. Black Eyed Peas & Becky G. – DURO HARD (03:25)
11. Black Eyed Peas & French Montana – MABUTI (04:16)
12. Black Eyed Peas – I WOKE UP (03:30)
13. Black Eyed Peas – GET LOOSE NOW (02:27)
14. Black Eyed Peas – ACTION (04:12)
15. Black Eyed Peas – NEWS TODAY (04:16)

Exact Audio Copy V1.3 from 2. September 2016

EAC extraction logfile from 30. August 2020, 22:04

The Black Eyed Peas / Translation

Used drive : PLEXTOR PX-891SAF Adapter: 1 ID: 0

Read mode : Secure
Utilize accurate stream : Yes
Defeat audio cache : Yes
Make use of C2 pointers : No

Read offset correction : 6
Overread into Lead-In and Lead-Out : No
Fill up missing offset samples with silence : Yes
Delete leading and trailing silent blocks : No
Null samples used in CRC calculations : Yes
Used interface : Native Win32 interface for Win NT & 2000
Gap handling : Appended to previous track

Used output format : User Defined Encoder
Selected bitrate : 1024 kBit/s
Quality : High
Add ID3 tag : No
Command line compressor : C:\Program Files (x86)\Exact Audio Copy\Flac\flac.exe
Additional command line options : -8 -V -T "ARTIST=%artist%" -T "TITLE=%title%" -T "ALBUM=%albumtitle%" -T "DATE=%year%" -T "TRACKNUMBER=%tracknr%" -T "GENRE=%genre%" -T "PERFORMER=%albuminterpret%" -T "COMPOSER=%composer%" %haslyrics%–tag-from-file=LYRICS="%lyricsfile%"%haslyrics% -T "ALBUMARTIST=%albumartist%" -T "DISCNUMBER=%cdnumber%" -T "TOTALDISCS=%totalcds%" -T "TOTALTRACKS=%numtracks%" -T "COMMENT=%comment%" %source% -o %dest%


TOC of the extracted CD

Track | Start | Length | Start sector | End sector
––––––––––––––––––––––––––––-
1 | 0:00.00 | 3:34.70 | 0 | 16119
2 | 3:34.70 | 3:57.53 | 16120 | 33947
3 | 7:32.48 | 4:11.32 | 33948 | 52804
4 | 11:44.05 | 3:40.50 | 52805 | 69354
5 | 15:24.55 | 3:54.27 | 69355 | 86931
6 | 19:19.07 | 3:39.50 | 86932 | 103406
7 | 22:58.57 | 3:50.35 | 103407 | 120691
8 | 26:49.17 | 3:39.61 | 120692 | 137177
9 | 30:29.03 | 3:50.30 | 137178 | 154457
10 | 34:19.33 | 3:25.04 | 154458 | 169836
11 | 37:44.37 | 4:16.00 | 169837 | 189036
12 | 42:00.37 | 3:30.23 | 189037 | 204809
13 | 45:30.60 | 2:27.02 | 204810 | 215836
14 | 47:57.62 | 4:12.23 | 215837 | 234759
15 | 52:10.10 | 4:16.02 | 234760 | 253961


Track 1

Filename D:\#EAC new\#wav+flac\#Add\The Black Eyed Peas - Translation\01. The Black Eyed Peas X J Balvin - Ritmo (Bad Boys For Life).wav

Pre-gap length 0:00:02.00

Peak level 98.5 %
Extraction speed 5.0 X
Track quality 100.0 %
Test CRC E4788E24
Copy CRC E4788E24
Accurately ripped (confidence 1) [DFCBE0BE] (AR v2)
Copy OK

Track 2

Filename D:\#EAC new\#wav+flac\#Add\The Black Eyed Peas - Translation\02. The Black Eyed Peas & Maluma - Feel The Beat.wav

Peak level 98.2 %
Extraction speed 4.7 X
Track quality 99.9 %
Test CRC E6B7092B
Copy CRC E6B7092B
Accurately ripped (confidence 1) [5E03D981] (AR v2)
Copy OK

Track 3

Filename D:\#EAC new\#wav+flac\#Add\The Black Eyed Peas - Translation\03. The Black Eyed Peas Feat. Ozuna & J.Rey Soul - Mamacita.wav

Peak level 97.8 %
Extraction speed 6.2 X
Track quality 100.0 %
Test CRC BBC1C7BF
Copy CRC BBC1C7BF
Accurately ripped (confidence 1) [07410E47] (AR v2)
Copy OK

Track 4

Filename D:\#EAC new\#wav+flac\#Add\The Black Eyed Peas - Translation\04. The Black Eyed Peas & Shakira - Girl Like Me.wav

Peak level 98.8 %
Extraction speed 6.4 X
Track quality 100.0 %
Test CRC B623C50F
Copy CRC B623C50F
Accurately ripped (confidence 1) [79690DF2] (AR v2)
Copy OK

Track 5

Filename D:\#EAC new\#wav+flac\#Add\The Black Eyed Peas - Translation\05. The Black Eyed Peas, Nicky Jam & Tyga - Vida Loca.wav

Peak level 97.7 %
Extraction speed 5.7 X
Track quality 99.9 %
Test CRC D3D7AB23
Copy CRC D3D7AB23
Accurately ripped (confidence 1) [652B42CB] (AR v2)
Copy OK

Track 6

Filename D:\#EAC new\#wav+flac\#Add\The Black Eyed Peas - Translation\06. The Black Eyed Peas & El Alfa - No Mañana.wav

Peak level 98.8 %
Extraction speed 7.2 X
Track quality 100.0 %
Test CRC 972607A2
Copy CRC 972607A2
Accurately ripped (confidence 1) [56C28EA8] (AR v2)
Copy OK

Track 7

Filename D:\#EAC new\#wav+flac\#Add\The Black Eyed Peas - Translation\07. The Black Eyed Peas & J. Rey Soul - Tonta Love.wav

Peak level 98.8 %
Extraction speed 7.6 X
Track quality 100.0 %
Test CRC A84F3278
Copy CRC A84F3278
Accurately ripped (confidence 1) [4CB3C77E] (AR v2)
Copy OK

Track 8

Filename D:\#EAC new\#wav+flac\#Add\The Black Eyed Peas - Translation\08. The Black Eyed Peas - Celebrate.wav

Peak level 98.8 %
Extraction speed 7.8 X
Track quality 100.0 %
Test CRC ACA57F32
Copy CRC ACA57F32
Accurately ripped (confidence 1) [C38A2E0F] (AR v2)
Copy OK

Track 9

Filename D:\#EAC new\#wav+flac\#Add\The Black Eyed Peas - Translation\09. The Black Eyed Peas & Piso 21 - Todo Bueno.wav

Peak level 98.3 %
Extraction speed 6.7 X
Track quality 99.9 %
Test CRC C57AD8B1
Copy CRC C57AD8B1
Accurately ripped (confidence 1) [352C0C7C] (AR v2)
Copy OK

Track 10

Filename D:\#EAC new\#wav+flac\#Add\The Black Eyed Peas - Translation\10. The Black Eyed Peas & Becky G - Duro Hard.wav

Peak level 98.8 %
Extraction speed 8.4 X
Track quality 100.0 %
Test CRC 0D94C3A9
Copy CRC 0D94C3A9
Accurately ripped (confidence 1) [C4D29314] (AR v2)
Copy OK

Track 11

Filename D:\#EAC new\#wav+flac\#Add\The Black Eyed Peas - Translation\11. The Black Eyed Peas & French Montana - Mabuti.wav

Peak level 98.8 %
Extraction speed 8.9 X
Track quality 100.0 %
Test CRC EDB701CF
Copy CRC EDB701CF
Accurately ripped (confidence 1) [75E1B083] (AR v2)
Copy OK

Track 12

Filename D:\#EAC new\#wav+flac\#Add\The Black Eyed Peas - Translation\12. The Black Eyed Peas - I Woke Up.wav

Peak level 98.3 %
Extraction speed 9.0 X
Track quality 100.0 %
Test CRC 219C68BF
Copy CRC 219C68BF
Accurately ripped (confidence 1) [572AA2FD] (AR v2)
Copy OK

Track 13

Filename D:\#EAC new\#wav+flac\#Add\The Black Eyed Peas - Translation\13. The Black Eyed Peas - Get Loose Now.wav

Peak level 98.8 %
Extraction speed 6.3 X
Track quality 99.9 %
Test CRC 7C1DF85F
Copy CRC 7C1DF85F
Accurately ripped (confidence 1) [6D7E9889] (AR v2)
Copy OK

Track 14

Filename D:\#EAC new\#wav+flac\#Add\The Black Eyed Peas - Translation\14. The Black Eyed Peas - Action.wav

Peak level 97.8 %
Extraction speed 7.9 X
Track quality 99.9 %
Test CRC 95E3E728
Copy CRC 95E3E728
Accurately ripped (confidence 1) [4FA9C006] (AR v2)
Copy OK

Track 15

Filename D:\#EAC new\#wav+flac\#Add\The Black Eyed Peas - Translation\15. The Black Eyed Peas - News Today.wav

Peak level 98.6 %
Extraction speed 9.8 X
Track quality 100.0 %
Test CRC 5E67B9ED
Copy CRC 5E67B9ED
Accurately ripped (confidence 1) [D8DBECA9] (AR v2)
Copy OK


All tracks accurately ripped

No errors occurred

End of status report

–– CUETools DB Plugin V2.1.6

[CTDB TOCID: rL.ZfQ.pDgXXxS6WEFz3.X460oY-] found
Submit result: rL.ZfQ.pDgXXxS6WEFz3.X460oY- has been confirmed
Track | CTDB Status
1 | (8/8) Accurately ripped
2 | (8/8) Accurately ripped
3 | (8/8) Accurately ripped
4 | (8/8) Accurately ripped
5 | (8/8) Accurately ripped
6 | (8/8) Accurately ripped
7 | (8/8) Accurately ripped
8 | (8/8) Accurately ripped
9 | (8/8) Accurately ripped
10 | (8/8) Accurately ripped
11 | (8/8) Accurately ripped
12 | (8/8) Accurately ripped
13 | (8/8) Accurately ripped
14 | (8/8) Accurately ripped
15 | (8/8) Accurately ripped


==== Log checksum D206706ABCBC029A414B9E807E19441877CC2D36419B8829AEBB064BAE699D13 ====

––––––––––––––––––––––––––––––

Exact Audio Copy V1.3 from 2. September 2016

EAC extraction logfile from 30. August 2020, 22:04

The Black Eyed Peas / Translation

Used drive : PLEXTOR PX-891SAF Adapter: 1 ID: 0

Read mode : Secure
Utilize accurate stream : Yes
Defeat audio cache : Yes
Make use of C2 pointers : No

Read offset correction : 6
Overread into Lead-In and Lead-Out : No
Fill up missing offset samples with silence : Yes
Delete leading and trailing silent blocks : No
Null samples used in CRC calculations : Yes
Used interface : Native Win32 interface for Win NT & 2000
Gap handling : Appended to previous track

Used output format : User Defined Encoder
Selected bitrate : 1024 kBit/s
Quality : High
Add ID3 tag : No
Command line compressor : C:\Program Files (x86)\Exact Audio Copy\Flac\flac.exe
Additional command line options : -8 -V -T "ARTIST=%artist%" -T "TITLE=%title%" -T "ALBUM=%albumtitle%" -T "DATE=%year%" -T "TRACKNUMBER=%tracknr%" -T "GENRE=%genre%" -T "PERFORMER=%albuminterpret%" -T "COMPOSER=%composer%" %haslyrics%–tag-from-file=LYRICS="%lyricsfile%"%haslyrics% -T "ALBUMARTIST=%albumartist%" -T "DISCNUMBER=%cdnumber%" -T "TOTALDISCS=%totalcds%" -T "TOTALTRACKS=%numtracks%" -T "COMMENT=%comment%" %source% -o %dest%


TOC of the extracted CD

Track | Start | Length | Start sector | End sector
––––––––––––––––––––––––––––-
1 | 0:00.00 | 3:34.70 | 0 | 16119
2 | 3:34.70 | 3:57.53 | 16120 | 33947
3 | 7:32.48 | 4:11.32 | 33948 | 52804
4 | 11:44.05 | 3:40.50 | 52805 | 69354
5 | 15:24.55 | 3:54.27 | 69355 | 86931
6 | 19:19.07 | 3:39.50 | 86932 | 103406
7 | 22:58.57 | 3:50.35 | 103407 | 120691
8 | 26:49.17 | 3:39.61 | 120692 | 137177
9 | 30:29.03 | 3:50.30 | 137178 | 154457
10 | 34:19.33 | 3:25.04 | 154458 | 169836
11 | 37:44.37 | 4:16.00 | 169837 | 189036
12 | 42:00.37 | 3:30.23 | 189037 | 204809
13 | 45:30.60 | 2:27.02 | 204810 | 215836
14 | 47:57.62 | 4:12.23 | 215837 | 234759
15 | 52:10.10 | 4:16.02 | 234760 | 253961


Track 1

Filename D:\#EAC new\#wav+flac\#Add\The Black Eyed Peas - Translation\01. The Black Eyed Peas X J Balvin - Ritmo (Bad Boys For Life).wav

Pre-gap length 0:00:02.00

Peak level 98.5 %
Extraction speed 5.0 X
Track quality 100.0 %
Test CRC E4788E24
Copy CRC E4788E24
Accurately ripped (confidence 1) [DFCBE0BE] (AR v2)
Copy OK

Track 2

Filename D:\#EAC new\#wav+flac\#Add\The Black Eyed Peas - Translation\02. The Black Eyed Peas & Maluma - Feel The Beat.wav

Peak level 98.2 %
Extraction speed 4.7 X
Track quality 99.9 %
Test CRC E6B7092B
Copy CRC E6B7092B
Accurately ripped (confidence 1) [5E03D981] (AR v2)
Copy OK

Track 3

Filename D:\#EAC new\#wav+flac\#Add\The Black Eyed Peas - Translation\03. The Black Eyed Peas Feat. Ozuna & J.Rey Soul - Mamacita.wav

Peak level 97.8 %
Extraction speed 6.2 X
Track quality 100.0 %
Test CRC BBC1C7BF
Copy CRC BBC1C7BF
Accurately ripped (confidence 1) [07410E47] (AR v2)
Copy OK

Track 4

Filename D:\#EAC new\#wav+flac\#Add\The Black Eyed Peas - Translation\04. The Black Eyed Peas & Shakira - Girl Like Me.wav

Peak level 98.8 %
Extraction speed 6.4 X
Track quality 100.0 %
Test CRC B623C50F
Copy CRC B623C50F
Accurately ripped (confidence 1) [79690DF2] (AR v2)
Copy OK

Track 5

Filename D:\#EAC new\#wav+flac\#Add\The Black Eyed Peas - Translation\05. The Black Eyed Peas, Nicky Jam & Tyga - Vida Loca.wav

Peak level 97.7 %
Extraction speed 5.7 X
Track quality 99.9 %
Test CRC D3D7AB23
Copy CRC D3D7AB23
Accurately ripped (confidence 1) [652B42CB] (AR v2)
Copy OK

Track 6

Filename D:\#EAC new\#wav+flac\#Add\The Black Eyed Peas - Translation\06. The Black Eyed Peas & El Alfa - No Mañana.wav

Peak level 98.8 %
Extraction speed 7.2 X
Track quality 100.0 %
Test CRC 972607A2
Copy CRC 972607A2
Accurately ripped (confidence 1) [56C28EA8] (AR v2)
Copy OK

Track 7

Filename D:\#EAC new\#wav+flac\#Add\The Black Eyed Peas - Translation\07. The Black Eyed Peas & J. Rey Soul - Tonta Love.wav

Peak level 98.8 %
Extraction speed 7.6 X
Track quality 100.0 %
Test CRC A84F3278
Copy CRC A84F3278
Accurately ripped (confidence 1) [4CB3C77E] (AR v2)
Copy OK

Track 8

Filename D:\#EAC new\#wav+flac\#Add\The Black Eyed Peas - Translation\08. The Black Eyed Peas - Celebrate.wav

Peak level 98.8 %
Extraction speed 7.8 X
Track quality 100.0 %
Test CRC ACA57F32
Copy CRC ACA57F32
Accurately ripped (confidence 1) [C38A2E0F] (AR v2)
Copy OK

Track 9

Filename D:\#EAC new\#wav+flac\#Add\The Black Eyed Peas - Translation\09. The Black Eyed Peas & Piso 21 - Todo Bueno.wav

Peak level 98.3 %
Extraction speed 6.7 X
Track quality 99.9 %
Test CRC C57AD8B1
Copy CRC C57AD8B1
Accurately ripped (confidence 1) [352C0C7C] (AR v2)
Copy OK

Track 10

Filename D:\#EAC new\#wav+flac\#Add\The Black Eyed Peas - Translation\10. The Black Eyed Peas & Becky G - Duro Hard.wav

Peak level 98.8 %
Extraction speed 8.4 X
Track quality 100.0 %
Test CRC 0D94C3A9
Copy CRC 0D94C3A9
Accurately ripped (confidence 1) [C4D29314] (AR v2)
Copy OK

Track 11

Filename D:\#EAC new\#wav+flac\#Add\The Black Eyed Peas - Translation\11. The Black Eyed Peas & French Montana - Mabuti.wav

Peak level 98.8 %
Extraction speed 8.9 X
Track quality 100.0 %
Test CRC EDB701CF
Copy CRC EDB701CF
Accurately ripped (confidence 1) [75E1B083] (AR v2)
Copy OK

Track 12

Filename D:\#EAC new\#wav+flac\#Add\The Black Eyed Peas - Translation\12. The Black Eyed Peas - I Woke Up.wav

Peak level 98.3 %
Extraction speed 9.0 X
Track quality 100.0 %
Test CRC 219C68BF
Copy CRC 219C68BF
Accurately ripped (confidence 1) [572AA2FD] (AR v2)
Copy OK

Track 13

Filename D:\#EAC new\#wav+flac\#Add\The Black Eyed Peas - Translation\13. The Black Eyed Peas - Get Loose Now.wav

Peak level 98.8 %
Extraction speed 6.3 X
Track quality 99.9 %
Test CRC 7C1DF85F
Copy CRC 7C1DF85F
Accurately ripped (confidence 1) [6D7E9889] (AR v2)
Copy OK

Track 14

Filename D:\#EAC new\#wav+flac\#Add\The Black Eyed Peas - Translation\14. The Black Eyed Peas - Action.wav

Peak level 97.8 %
Extraction speed 7.9 X
Track quality 99.9 %
Test CRC 95E3E728
Copy CRC 95E3E728
Accurately ripped (confidence 1) [4FA9C006] (AR v2)
Copy OK

Track 15

Filename D:\#EAC new\#wav+flac\#Add\The Black Eyed Peas - Translation\15. The Black Eyed Peas - News Today.wav

Peak level 98.6 %
Extraction speed 9.8 X
Track quality 100.0 %
Test CRC 5E67B9ED
Copy CRC 5E67B9ED
Accurately ripped (confidence 1) [D8DBECA9] (AR v2)
Copy OK


All tracks accurately ripped

No errors occurred

End of status report

–– CUETools DB Plugin V2.1.6

[CTDB TOCID: rL.ZfQ.pDgXXxS6WEFz3.X460oY-] found
Submit result: rL.ZfQ.pDgXXxS6WEFz3.X460oY- has been confirmed
Track | CTDB Status
1 | (8/8) Accurately ripped
2 | (8/8) Accurately ripped
3 | (8/8) Accurately ripped
4 | (8/8) Accurately ripped
5 | (8/8) Accurately ripped
6 | (8/8) Accurately ripped
7 | (8/8) Accurately ripped
8 | (8/8) Accurately ripped
9 | (8/8) Accurately ripped
10 | (8/8) Accurately ripped
11 | (8/8) Accurately ripped
12 | (8/8) Accurately ripped
13 | (8/8) Accurately ripped
14 | (8/8) Accurately ripped
15 | (8/8) Accurately ripped


==== Log checksum D206706ABCBC029A414B9E807E19441877CC2D36419B8829AEBB064BAE699D13 ====

Thanks to the Original ripper !