Subcategories
Tags
Language
Tags

100 Days Of Web in Python Course

Posted By: ParRus
100 Days Of Web in Python Course

100 Days Of Web in Python Course
WEBRip | English | MP4 | 1280 x 720 | AVC ~448 Kbps | 30 fps
AAC | 160 Kbps | 44.1 KHz | 2 channels | ~25 hours | 10.5 GB
Genre: eLearning Video / Development, Python

#100DaysOfWeb in Python is a course that will ensure your success with the 100 days of code challenge, all while teaching you Python web development. With every 4 days dedicated to a different concept, you’ll be amazed at how many Python Web technologies and libraries you’ll learn on this journey. Join the course and start your 100 day challenge now.
What's this course about and how is it different?
100 days of code isn’t just about the time commitment. The true power is in utilising that time effectively with a tailored set of projects. That’s why we have 24 practical projects, each paired with 20-60 minute video lessons at the beginning of the project.

Just a small sampling of the projects you’ll work on include:

Create your very own Static Site
Use API Star and py test to make and test an API
An introduction to the Flask framework
Learn javascript by making a calculator and calorie counter
SQLAlchemy Database creation
Use Docker to containerize your applications
Build a Bill Tracking web tool with Pyramid
Use React to build javascript user interfaces
Selenium testing of numerous web functions
Django app creation with registration and login functionality
Web Scraping with BeautifulSoup4 and newspaper3k
And 17 more projects!
View the full course outline.

Who is this course for?
This course is for anyone who knows the basics of Python and wants to push themselves into the world of Python Web Development for 100 days with hands-on projects.

We don’t start from absolute zero in terms of programming but if you are new to Python we have a language appendix and we start somewhat slow. By the end of the course, we get into intermediate-level Python projects.

Course flow and the 28 projects

Course Outline: Chapters

01 Welcome to the course
02 Days 1-4 Flask Intro
03 Days 5-8 HTML and HTML5
04 Days 9-12 API Star
05 Days 13-16 CSS Layout and Design
06 Days 17-20 Calling APIs in Flask
07 Days 21-24 Async Flask APIs with Quart
08 Days 25-28 javascript Introduction
09 Days 29-32 Static Sites
10 Days 33-36 Database access with SQLAlchemy
11 Days 37-40 Introduction to Pyramid framework
12 Days 41-44 React javascript user interfaces
13 Days 45-48 Build a simple Django app
14 Day 49 Selenium
15 Day 50 Responder framework
16 Day 51 Twilio
17 Day 52 Anvil - Full Stack Web Apps
18 Days 53-56 Django part 2 - registration and login
19 Days 57-60 Flask Login
20 Days 61-64 Database migrations
21 Days 65-68 Heroku and Python Platform-as-a-Service
22 Days 69-72 Django REST Framework
23 Days 73-76 Web Scraping
24 Days 77-80 Twitter and Slack bots
25 Days 81-84 Unit testing web apps
26 Days 85-88 Serverless Python with AWS Lambda
27 Days 89-92 Deploying Python web apps to Linux
28 Days 93-96 Vue.js - javascript user interfaces
29 Days 97-100 Docker and Docker Compose
30 Conclusion

Source code and course GitHub repository_github.com/talkpython/100daysofweb-with-python-course


also You can find my other useful: Development-posts

General
Complete name : 93 Variables (var vs let) and data types.mp4
Format : MPEG-4
Format profile : Base Media
Codec ID : isom (isom/iso2/avc1/mp41)
File size : 24.1 MiB
Duration : 5 min 27 s
Overall bit rate : 616 kb/s
Writing application : Lavf57.71.100

Video
ID : 2
Format : AVC
Format/Info : Advanced Video Codec
Format profile : Main@L3.1
Format settings : CABAC / 4 Ref Frames
Format settings, CABAC : Yes
Format settings, RefFrames : 4 frames
Codec ID : avc1
Codec ID/Info : Advanced Video Coding
Duration : 5 min 27 s
Bit rate : 448 kb/s
Nominal bit rate : 2 200 kb/s
Width : 1 280 pixels
Height : 720 pixels
Display aspect ratio : 16:9
Frame rate mode : Constant
Frame rate : 30.000 FPS
Color space : YUV
Chroma subsampling : 4:2:0
Bit depth : 8 bits
Scan type : Progressive
Bits/(Pixel*Frame) : 0.016
Stream size : 17.5 MiB (73%)
Writing library : x264 core 148
Encoding settings : cabac=1 / ref=3 / deblock=1:0:0 / analyse=0x1:0x111 / me=hex / subme=7 / psy=1 / psy_rd=1.00:0.00 / mixed_ref=1 / me_range=16 / chroma_me=1 / trellis=1 / 8x8dct=0 / cqm=0 / deadzone=21,11 / fast_pskip=1 / chroma_qp_offset=-2 / threads=22 / lookahead_threads=3 / sliced_threads=0 / nr=0 / decimate=1 / interlaced=0 / bluray_compat=0 / constrained_intra=0 / bframes=3 / b_pyramid=2 / b_adapt=1 / b_bias=0 / direct=1 / weightb=1 / open_gop=0 / weightp=2 / keyint=90 / keyint_min=9 / scenecut=40 / intra_refresh=0 / rc_lookahead=40 / rc=abr / mbtree=1 / bitrate=2200 / ratetol=1.0 / qcomp=0.60 / qpmin=0 / qpmax=69 / qpstep=4 / ip_ratio=1.40 / aq=1:1.00
Language : English

Audio
ID : 1
Format : AAC
Format/Info : Advanced Audio Codec
Format profile : LC
Codec ID : mp4a-40-2
Duration : 5 min 27 s
Bit rate mode : Constant
Bit rate : 160 kb/s
Channel(s) : 2 channels
Channel positions : Front: L R
Sampling rate : 44.1 kHz
Frame rate : 43.066 FPS (1024 SPF)
Compression mode : Lossy
Stream size : 6.25 MiB (26%)
Language : English
Default : Yes
Alternate group : 1

Screenshots

100 Days Of Web in Python Course

100 Days Of Web in Python Course

100 Days Of Web in Python Course

100 Days Of Web in Python Course

100 Days Of Web in Python Course

Exclusive eLearning Videos ParRus-blogadd to bookmarks

100 Days Of Web in Python Course