Subcategories

Andy Aledort's - 30 Beginner Slide Blues Guitar Licks You MUST Know

Posted By: ParRus
Andy Aledort's - 30 Beginner Slide Blues Guitar Licks You MUST Know

Andy Aledort's - 30 Beginner Slide Blues Guitar Licks You MUST Know
DATA-DVD | English | MP4 + PDF tabs + MP3 jam tracks | 960 x 540 | AVC ~768 kbps | 29.970 fps
AAC 108 Kbps 44.1 KHz | 2 channels | ~2 hours | 1 GB
Genre: eLearning Video / Guitar lesson

Learn foundational beginner blues slide guitar licks. The vocal-like, expressive qualities of slide guitar is why so many blues masters have dedicated the time to learn the technique and build a vocabulary of tasty slide licks to spice their music with.
Robert Johnson, Hound Dog Taylor, Robert Nighthawk, Muddy Waters, John Lee Hooker, Elmore James, Sonny Landreth, Duane Allman, Ry Cooder, Bonnie Raitt, Derek Trucks, George Thorogood, Joe Bonamassa, Jeff Healey, and Keb' Mo' are just a few examples of blues pioneers and masters who have a solid slide technique and their own signature slide styling.

Andy Aledort’s 30 Beginner Slide Blues Licks is your rite of passage for blues slide guitar. Whether you’ve been playing for years or just starting out, these 30 slide licks will jump start your slide chops and vocabulary.

”The sound of slide guitar is integral to blues music. It’s also the most effective way to emulate the human voice on the instrument offering an extensive range of tones and sounds that are otherwise unattainable. I’ve hand-picked 30 easily accessible slide blues licks, demonstrated in three essential tunings, which will lay the perfect foundation for a deeper understanding of the art of slide guitar.”

Andy demonstrates all of the licks over rhythm tracks and then breaks them down note-by-note showing you the techniques you’ll need to get a grip on to play them correctly.

”We’ll start off simple building your basic slide technique. From there we’ll dig into some of the microtonal qualities that the slide offers. We’ll take explore the sound of Chicago-style slide guitar, learn some greasy deep-shuffle sounds of Texas slide, work on some Robert Johnson inspired sounds, and also examine the connection between slide guitar and the Chicago blues harmonica sounds of Little Walter and George “Harmonica” Smith. We’ll explore some of the intricacies of emulating an open tuning when playing slide in standard tuning and dig into the sounds of West Memphis style blues.”

All of the licks are tabbed and notated for your practice, reference and study purposes. You’ll also get Guitar Pro files so that you can play, loop and/or slow down the tab and notation as you work through the lessons. Plus, Andy generously includes all of the rhythm tracks for you to work with on your own.

Grab your guitar, pop that slide on your finger, and let’s learn how to play the slide with Andy Aledort!

also You can look my other last: Guitar Lessons-posts

General
Complete name : 01.mp4
Format : MPEG-4
Format profile : Base Media
Codec ID : isom
File size : 16.7 MiB
Duration : 2mn 38s
Overall bit rate mode : Variable
Overall bit rate : 885 Kbps
Writing application : Lavf55.19.104

Video
ID : 1
Format : AVC
Format/Info : Advanced Video Codec
Format profile : Main@L3.1
Format settings, CABAC : Yes
Format settings, ReFrames : 4 frames
Codec ID : avc1
Codec ID/Info : Advanced Video Coding
Duration : 2mn 37s
Bit rate : 768 Kbps
Width : 960 pixels
Height : 540 pixels
Display aspect ratio : 16:9
Frame rate mode : Constant
Frame rate : 29.970 fps
Color space : YUV
Chroma subsampling : 4:2:0
Bit depth : 8 bits
Scan type : Progressive
Bits/(Pixel*Frame) : 0.049
Stream size : 14.5 MiB (87%)
Writing library : x264 core 119
Encoding settings : cabac=1 / ref=1 / deblock=1:0:0 / analyse=0x1:0x1 / me=dia / subme=1 / psy=1 / psy_rd=1.00:0.00 / mixed_ref=0 / me_range=16 / chroma_me=1 / trellis=0 / 8x8dct=0 / cqm=0 / deadzone=21,11 / fast_pskip=1 / chroma_qp_offset=0 / threads=4 / sliced_threads=0 / nr=0 / decimate=1 / interlaced=0 / bluray_compat=0 / constrained_intra=0 / bframes=3 / b_pyramid=2 / b_adapt=1 / b_bias=0 / direct=1 / weightb=1 / open_gop=0 / weightp=1 / keyint=250 / keyint_min=25 / scenecut=40 / intra_refresh=0 / rc=abr / mbtree=0 / bitrate=768 / ratetol=1.0 / qcomp=0.60 / qpmin=0 / qpmax=69 / qpstep=4 / ip_ratio=1.40 / pb_ratio=1.30 / aq=1:1.00

Audio
ID : 2
Format : AAC
Format/Info : Advanced Audio Codec
Format profile : LC
Codec ID : 40
Duration : 2mn 38s
Duration_LastFrame : -17ms
Bit rate mode : Variable
Bit rate : 108 Kbps
Maximum bit rate : 320 Kbps
Channel(s) : 2 channels
Channel positions : Front: L R
Sampling rate : 44.1 KHz
Compression mode : Lossy
Stream size : 2.04 MiB (12%)
Screenshots

Andy Aledort's - 30 Beginner Slide Blues Guitar Licks You MUST Know

Andy Aledort's - 30 Beginner Slide Blues Guitar Licks You MUST Know

Andy Aledort's - 30 Beginner Slide Blues Guitar Licks You MUST Know

Exclusive eLearning Videos ParRus-blogadd to bookmarks

Andy Aledort's - 30 Beginner Slide Blues Guitar Licks You MUST Know