Subcategories

Oreilly - UX for The Internet of Things

Posted By: AlenMiler
Oreilly - UX for The Internet of Things

Oreilly - UX for The Internet of Things: Predictive Device Behavior, Designing for Coherent Systems, Prototyping for Connected Products, and Coherent Interusability by Claire Rowland
3 hours 56 minutes | July 2015 | Video: AVC (.mp4) 1280x720 29.97fps | Audio: AAC 44.1KHz 2ch | 2.14 GB
Genre: eLearning | Language: English

By the end of 2015, 4.9 billion connected "things" will be in use, and the one factor that will determine success of these products is the user experience. In this video, six of the smartest people working in design and the IoT share their knowledge, tools, and techniques along with the actionable advice you need to create extraordinary IoT experiences.

"Experience Design for the Internet of Things" was originally presented as a live online event. Now, all six presentations in that event are available to view at your leisure, including:

Getting to simple: Deploying IoT at scale
Pilgrim Beart, Founder, AlertMe.com Ltd.
Explore the underlying factors and trends driving IoT design requirements, with lessons learned—and pitfalls to avoid—from Pilgrim Beart’s experience scaling his Connected Home service into the millions.

Understanding industrial design
Simon King, Design Director, IDEO
Simon uses examples from industrial design to highlight principles and practices relevant to interaction designers and UX professionals. You’ll learn how the fundamental building blocks apply in the present context.

Prototyping experience for connected products
Martin Charlier, Independent Design Consultant
Learn about experience prototyping methods and how they differ from software UX prototypes. Understanding the purpose of your prototype is crucial to selecting the appropriate and most effective method.

User experience and predictive device behavior in the Internet of Things
Mike Kuniavsky, Principal Scientist, PARC
Understand the potential of UX design for dynamic, adaptive, and predictive devices. You’ll learn examples of several different systems and come away with a list of UX challenges for creating behavioral systems.

Interusability: Designing a coherent system UX
Claire Rowland, independent UX/product consultant
Because IoT interactions often span multiple devices that have different capabilities, UX designers can’t just think about designing separate UIs. Claire explains what’s involved in designing a coherent UX for whole systems.

Experience design for IoT security: Lessons from architecture school
Ame Elliott, Design Director, Simply Secure
How do you safeguard the privacy and security of people who use connected home/IoT applications? Ame presents UX designers with lessons from architecture school for designing smart home devices.


Understanding Industrial Design - Simon King 36m 19s

Getting to simple: Deploying IoT at scale - Pilgrim Beart 37m 10s

Prototyping experience for connected products - Martin Charlier 46m 03s

User experience and predictive device behavior in the internet of things - Mike Kuniavsky 47m 56s

Experience design for IoT security: Lessons from architecture school - Ame Elliott 25m 40s

Interusability: Designing a coherent system UX - Claire Rowland 43m 33s


Video: MPEG4 Video (H264) 1280x720 29.97fps 1027kbps [V: h264 main L3.1, yuv420p, 1280x720, 1027 kb/s]
Audio: AAC 44100Hz mono 128kbps [A: SoundHandler (aac lc, 44100 Hz, mono, 128 kb/s)]

General

Format : MPEG-4
Format profile : Base Media
Codec ID : isom
File size : 302 MiB
Duration : 36mn 19s
Overall bit rate mode : Variable
Overall bit rate : 1 164 Kbps
Writing application : Lavf55.19.104

Video
ID : 2
Format : AVC
Format/Info : Advanced Video Codec
Format profile : Main@L3.1
Format settings, CABAC : Yes
Format settings, ReFrames : 4 frames
Codec ID : avc1
Codec ID/Info : Advanced Video Coding
Duration : 36mn 18s
Bit rate : 1 028 Kbps
Nominal bit rate : 1 500 Kbps
Width : 1 280 pixels
Height : 720 pixels
Display aspect ratio : 16:9
Frame rate mode : Constant
Frame rate : 29.970 fps
Color space : YUV
Chroma subsampling : 4:2:0
Bit depth : 8 bits
Scan type : Progressive
Bits/(Pixel*Frame) : 0.037
Stream size : 267 MiB (88%)
Writing library : x264 core 138
Encoding settings : cabac=1 / ref=1 / deblock=1:0:0 / analyse=0x1:0x111 / me=hex / subme=5 / psy=1 / psy_rd=1.00:0.00 / mixed_ref=0 / me_range=16 / chroma_me=1 / trellis=1 / 8x8dct=0 / cqm=0 / deadzone=21,11 / fast_pskip=1 / chroma_qp_offset=0 / threads=4 / lookahead_threads=1 / sliced_threads=0 / nr=0 / decimate=1 / interlaced=0 / bluray_compat=0 / constrained_intra=0 / bframes=3 / b_pyramid=2 / b_adapt=1 / b_bias=0 / direct=1 / weightb=1 / open_gop=0 / weightp=2 / keyint=60 / keyint_min=20 / scenecut=40 / intra_refresh=0 / rc_lookahead=40 / rc=cbr / mbtree=1 / bitrate=1500 / ratetol=1.0 / qcomp=0.60 / qpmin=10 / qpmax=50 / qpstep=4 / vbv_maxrate=1500 / vbv_bufsize=1200 / nal_hrd=none / ip_ratio=1.41 / aq=1:1.00

Audio
ID : 1
Format : AAC
Format/Info : Advanced Audio Codec
Format profile : LC
Codec ID : 40
Duration : 36mn 19s
Duration_LastFrame : -1ms
Bit rate mode : Variable
Bit rate : 128 Kbps
Maximum bit rate : 1 500 Kbps
Channel(s) : 2 channels
Channel(s)_Original : 1 channel
Channel positions : Front: C
Sampling rate : 44.1 KHz
Compression mode : Lossy
Stream size : 33.3 MiB (11%)

Oreilly - UX for The Internet of Things