Subcategories

SkillShare - 365 Days Of Creativity (Month 1-12)

Posted By: ParRus
SkillShare - 365 Days Of Creativity (Month 1-12)

SkillShare - 365 Days Of Creativity
WEBRip | English | MP4 + PDF Guides | 1280 x 720 | AVC ~2500 Kbps | 30 fps
AAC | 128 Kbps | 44.1 KHz | 2 channels | ~22 hours | 37.56 GB
Genre: eLearning Video / Adobe Photoshop, Illustrator, InDesign

Welcome to Your Biggest Creative challenge! This course will teach you something new every single day for an entire year! The format will provide you with the ultimate creative challenge and a different kind of learning experience. This course is split into 12 months, each available as a separate course here on SkillShare. All videos are in numerical sequence, however you can watch them in any order you like!
Each day you will take part in graphic design and illustration projects mainly using Adobe Photoshop, Illustrator and InDesign. We will also teach you drawing, mixed media techniques, design theory and mobile apps such as Procreate!

Each video is divided into two sections, starting with a one minute tutorial, that explains the techniques needed, which seamlessly leads into a commentary style video providing further insight into the topic.

Many of these tutorials are accompanied by a downloadable working file. Feel free to download these and practice the techniques you learnt.

also You can find other my intetesting: Adobe Photoshop-posts

General
Complete name : 003. Day 1 - Icon Design (Ai) #60 3.mp4
Format : MPEG-4
Format profile : Base Media
Codec ID : isom (isom/avc1/mp42)
File size : 311 MiB
Duration : 16 min 30 s
Overall bit rate mode : Variable
Overall bit rate : 2 633 kb/s
Encoded date : UTC 2018-12-28 22:47:20
Tagged date : UTC 2018-12-28 22:47:20

Video
ID : 1
Format : AVC
Format/Info : Advanced Video Codec
Format profile : Main@L3.1
Format settings : CABAC / 4 Ref Frames
Format settings, CABAC : Yes
Format settings, RefFrames : 4 frames
Codec ID : avc1
Codec ID/Info : Advanced Video Coding
Duration : 16 min 30 s
Bit rate : 2 500 kb/s
Maximum bit rate : 31.5 Mb/s
Width : 1 280 pixels
Height : 720 pixels
Display aspect ratio : 16:9
Frame rate mode : Constant
Frame rate : 30.000 FPS
Color space : YUV
Chroma subsampling : 4:2:0
Bit depth : 8 bits
Scan type : Progressive
Bits/(Pixel*Frame) : 0.090
Stream size : 295 MiB (95%)
Writing library : Zencoder Video Encoding System
Encoded date : UTC 2018-12-28 22:43:50
Tagged date : UTC 2018-12-28 22:47:21
Color range : Limited
Color primaries : BT.709
Transfer characteristics : BT.709
Matrix coefficients : BT.709

Audio
ID : 2
Format : AAC
Format/Info : Advanced Audio Codec
Format profile : LC
Codec ID : mp4a-40-2
Duration : 16 min 30 s
Bit rate mode : Variable
Bit rate : 128 kb/s
Maximum bit rate : 145 kb/s
Channel(s) : 2 channels
Channel positions : Front: L R
Sampling rate : 44.1 kHz
Frame rate : 43.066 FPS (1024 SPF)
Compression mode : Lossy
Stream size : 15.1 MiB (5%)
Encoded date : UTC 2018-12-28 22:40:48
Tagged date : UTC 2018-12-28 22:47:21

Screenshots

SkillShare - 365 Days Of Creativity (Month 1-12)

SkillShare - 365 Days Of Creativity (Month 1-12)

SkillShare - 365 Days Of Creativity (Month 1-12)

SkillShare - 365 Days Of Creativity (Month 1-12)

SkillShare - 365 Days Of Creativity (Month 1-12)

Exclusive eLearning Videos ParRus-blogadd to bookmarks

SkillShare - 365 Days Of Creativity (Month 1-12)