Subcategories

Couples Massage Secrets Of Traditional Massage

Posted By: GoodPoster
Couples Massage Secrets Of Traditional Massage

Couples Massage Secrets Of Traditional Massage
SatRip | English | AVI | 640 x 272 | DivX ~969 kbps | 23.97 fps
MP3 192 kbps | 48.0 KHz | 2 channels | 569 MB
Genre: eLearning / Massage

A massage video can be a very helpful medium if you don't have access to personal massage training or want to refresh your memory on techniques that you have already learned. Or perhaps you just want to explore new techniques and styles, but don't want to commit to a full massage course in that particular massage style.

C:\Users\Administrator\Desktop\Couples Massage Secrets Of Traditional Massage.avi
General
Complete name : C:\Users\Administrator\Desktop\Couples Massage Secrets Of Traditional Massage.avi
Format : AVI
Format/Info : Audio Video Interleave
File size : 570 MiB
Duration : 1h 7mn
Overall bit rate : 1 174 Kbps
Writing application : MEncoder dev-CVS-060101-18:59-4.0.2
Writing library : MPlayer
Video #0
ID : 0
Format : MPEG-4 Visual
Format profile : Simple@L1
Format settings, BVOP : No
Format settings, QPel : No
Format settings, GMC : No warppoints
Format settings, Matrix : Default (H.263)
Codec ID : DIVX
Codec ID/Info : Project Mayo
Codec ID/Hint : DivX 4
Duration : 1h 7mn
Bit rate : 969 Kbps
Width : 640 pixels
Height : 272 pixels
Display aspect ratio : 2.35:1
Frame rate : 23.976 fps
Resolution : 24 bits
Colorimetry : 4:2:0
Scan type : Progressive
Bits/(Pixel*Frame) : 0.232
Stream size : 471 MiB (83%)
Writing library : Lavc51.0.0
Audio #1
ID : 1
Format : MPEG Audio
Format version : Version 1
Format profile : Layer 3
Codec ID : 55
Codec ID/Hint : MP3
Duration : 1h 7mn
Bit rate mode : Constant
Bit rate : 192 Kbps
Channel(s) : 2 channels
Sampling rate : 48.0 KHz
Resolution : 16 bits
Stream size : 93.0 MiB (16%)
Alignment : Aligned on interleaves
Interleave, duration : 24 ms (0.58 video frame)
Interleave, preload duration : 504 ms
Writing library : LAME3.97 (beta)


Screenshot

Couples Massage Secrets Of Traditional Massage

Couples Massage Secrets Of Traditional Massage

Couples Massage Secrets Of Traditional Massage


-No mirrors, follow the rules-

Couples Massage Secrets Of Traditional Massage