Subcategories

Dr. Wayne W. Dyer - Der Wunde Punkt

Posted By: shaykaram
Dr. Wayne W. Dyer - Der Wunde Punkt

Dr. Wayne W. Dyer - Der Wunde Punkt: Die Kunst, nicht unglücklich zu sein [Audiobook]
Audiobook, Hörbuch | EAC + LOG | MP3 320kbps VBR | No Covers | 5% Rec. | RS.COM | 660 MB
German | 8 CDs ~ 574MIN | 2007 | Label: Rusch | ISBN: 3905685779

"Ich bin zu dick. Keiner liebt mich. Ich bin ein Versager." Jeder Tag im Leben wird zur Qual, wenn man so wenig von sich hält.
Hier liegt unser eigentlicher "wunder Punkt". Wir haben nur unzureichend gelernt, selbst für uns die Verantwortung zu übernehmen. Allzu leicht lassen wir unsere Umgebung bestimmen, was für uns gut und richtig ist, übernehmen Normen und Verhaltensweisen, an denen wir uns ängstlich ausrichten.
Und hier setzt auch die Therapie von Dr. Dyer ein. In seinen zwölf Beratungsstunden erfahren wir viel über uns selbst. Er nimmt uns schrittweise und behutsam unsere Angst, uns auf uns selbst einzulassen, uns mit unseren Schwächen und Stärken zu akzeptieren. Wir begreifen am Ende seiner Behandlung, wie befreiend es für uns - und unserer Mitmenschen - sein kann, wenn wir selbst gelassen die Verantwortung für unsere individuelle Person übernehmen können.

Über den Autor
Dr. Wayne W. Dyer gehört aufgrund seiner Bücher, seiner zahlreichen Fernsehauftritte, seiner Videos, seiner Seminare und seiner auflagenstraken Hörbücher zu den bekanntesten Persönlichkeiten Amerikas.

In "Der wunde Punkt" geht es um Ihre Lebensqualität. Darum, was Sie daran hindert, glücklich und zufrieden zu sein. Sehr umfassend erläutert Ihnen Wayne Dyer die so genannten "psychischen Problemzonen", mit denen Sie es sich selbst oft schwer machen: die Tatsache, keine oder nur in geringem Maße Verantwortung für das eigene Leben zu übernehmen, die Orientierung an der Meinung anderer Menschen, Selbstzweifel, Sorgen, Schuldgefühle und vieles andere mehr.

Dieses Hörbuch bietet einen umfassenden und tiefgehenden Kurs zum Thema "Aktive Lebensgestaltung". Zitate aus Wissenschaft und Literatur sowie kleine Fallgeschichten machen das Gesagte anschaulich und plastisch. Sie erhalten auf 12 Kassetten eine Fülle von Denkanstöße, Tipps und konkrete Handlungsanleitungen, mit denen Sie sich verändern können. Wayne Dyer hält sich nicht lang auf mit weichen oder hypnotischen Formulierungen, sondern wählt eine deutlich Sprache.

Gesprochen wird der Text von Manfred Idinger, einem Schweizer Nachrichen- und Radiosprecher, der professionell, aber streckenweise etwas übertrieben überdeutlich spricht. Daran gewöhnt man sich aber schnell.
Für wen ist dieses Buch?

Ein Hörbuch für Menschen, die festen Willens sind, Verantwortung für das eigene Glück und Wohlbefinden zu übernehmen um so das Leben aktiv zu gestalten.

Als Hörbuch besonders gut für alle geeignet, die wenig Zeit zum Lesen haben oder für Personen, die viel im Auto fahren.
Aus dem Inhalt

* In eigener Verantwortung
* Ob die anderen Sie gut finden, ist nicht entscheidend
* Vergangenes auf sich beruhen lassen
* Schuldgefühle und Sorgen: Emotionen, die nichts bringen
* Die Lust am Unbekannten
* Schluss mit den Konventionen
* Die Gerechtigkeitsfalle
* So lebt man nach der Abkehr von seinen seelischen Problemen
* u.a.

Exact Audio Copy V0.99 prebeta 5 from 4. May 2009

EAC extraction logfile from 11. October 2009, 14:55

Dr.Wayne W. Dyer / Der Wunde Punkt

Used drive : HL-DT-STDVDRAM GP20N Adapter: 1 ID: 0

Read mode : Burst

Combined read/write offset correction : 0
Overread into Lead-In and Lead-Out : No
Fill up missing offset samples with silence : Yes
Delete leading and trailing silent blocks : No
Null samples used in CRC calculations : Yes
Used interface : Native Win32 interface for Win NT & 2000
Gap handling : Not detected, thus appended to previous track

Used output format : User Defined Encoder
Selected bitrate : 320 kBit/s
Quality : High
Add ID3 tag : Yes
Command line compressor : C:\Program Files\Illustrate\dBpoweramp\encoder\mp3 (Lame)\LAME.EXE
Additional command line options : %l-V 5%l%h-V 2%h –vbr-new %s %d
Use compression offset : 667


TOC of the extracted CD

Track | Start | Length | Start sector | End sector
––––––––––––––––––––––––––––-
1 | 0:00.00 | 2:05.20 | 0 | 9394
2 | 2:05.20 | 0:22.37 | 9395 | 11081
3 | 2:27.57 | 16:18.10 | 11082 | 84441
4 | 18:45.67 | 9:17.19 | 84442 | 126235
5 | 28:03.11 | 11:59.39 | 126236 | 180199
6 | 40:02.50 | 17:29.01 | 180200 | 258875
7 | 57:31.51 | 14:23.67 | 258876 | 323667


Track 1

Filename D:\Poster\Dr. Wayne W. Dyer - Der Wunde Punkt - 8 CD's [Audiobook]\Dr. Wayne W. Dyer - Der Wunde Punkt - CD1\Track01.wav

Timing problem 0:00:01
Timing problem 0:00:18

Peak level 85.9 %
Copy CRC 4EEBCA45
Copy finished

Track 2

Filename D:\Poster\Dr. Wayne W. Dyer - Der Wunde Punkt - 8 CD's [Audiobook]\Dr. Wayne W. Dyer - Der Wunde Punkt - CD1\Track02.wav

Peak level 78.5 %
Copy CRC 861D31D3
Copy OK

Track 3

Filename D:\Poster\Dr. Wayne W. Dyer - Der Wunde Punkt - 8 CD's [Audiobook]\Dr. Wayne W. Dyer - Der Wunde Punkt - CD1\Track03.wav

Peak level 100.0 %
Copy CRC DD45DFE5
Copy OK

Track 4

Filename D:\Poster\Dr. Wayne W. Dyer - Der Wunde Punkt - 8 CD's [Audiobook]\Dr. Wayne W. Dyer - Der Wunde Punkt - CD1\Track04.wav

Peak level 100.0 %
Copy CRC 7246E9DB
Copy OK

Track 5

Filename D:\Poster\Dr. Wayne W. Dyer - Der Wunde Punkt - 8 CD's [Audiobook]\Dr. Wayne W. Dyer - Der Wunde Punkt - CD1\Track05.wav

Peak level 100.0 %
Copy CRC F82E667B
Copy OK

Track 6

Filename D:\Poster\Dr. Wayne W. Dyer - Der Wunde Punkt - 8 CD's [Audiobook]\Dr. Wayne W. Dyer - Der Wunde Punkt - CD1\Track06.wav

Timing problem 0:14:24 - 0:14:25
Timing problem 0:14:32

Peak level 100.0 %
Copy CRC CA66BF22
Copy finished

Track 7

Filename D:\Poster\Dr. Wayne W. Dyer - Der Wunde Punkt - 8 CD's [Audiobook]\Dr. Wayne W. Dyer - Der Wunde Punkt - CD1\Track07.wav

Peak level 100.0 %
Copy CRC A8602995
Copy OK

No errors occurred

End of status report


Buy

Dr. Wayne W. Dyer - Der Wunde Punkt: Die Kunst, nicht unglücklich zu sein [Audiobook] 8CD's
@ Rapidshare.com:

CD 1

CD 2

CD 3

CD 4

CD 5

CD 6

CD 7

CD 8


My Blog