Subcategories

Total Training - Adobe Flash Professional CS6 Essentials (2013)

Posted By: vivid23
Total Training - Adobe Flash Professional CS6 Essentials (2013)

Total Training - Adobe Flash Professional CS6 Essentials (2013)
960x540 | MP4/x264 @ 533 Kbps | 4.75hours | Audio: English AAC 96 kbps, 2 channels | 604 MB
Genre: eLearning

This series will help you get started using world's leading image editing software. Adobe Education Leader Debbie Keller will provide you with an overview of the interface, the tools, panels and options you'll need as a foundation for using Adobe Photoshop CS6.

Debbie will review the key new features in this version and teach you about the tools, palettes, and menu bars, as well as, the major features such as layers, selections, image editing, compositing, using Adobe Bridge, type design, drawing and painting, and creating a web photo gallery.

With Total Training for Adobe Photoshop CS6 Essentials you will learn Photoshop skills that will allow you to create professional looking images that you can be proud of. By the time you have completed this course you will be prepared to take your ACA Visual Communication exam and you will have excellent beginner to intermediate skills using Photoshop CS6.

More info


Chapter 1: UNDERSTANDING THE FLASH CS6 INTERFACE (25 min)

New Documents & Setting Document Properties
Touring the Interface
Using Guides & Rulers

Chapter 2: WORKING WITH THE DRAWING & SHAPE TOOLS (41 min)

Drawing Shapes in Flash
Drawing with Primitive Tools
Comparing Merge Drawing Mode vs. Object Drawing Mode
Modifying Shapes with the Direct Selection Tool & Subselection Tool
Using the Deco Tool
Using Gradients & Mixing Colors

Chapter 3: WORKING WITH SYMBOLS (27 min)

Understanding the Characteristics of Symbols
Creating & Editing Symbols
Exploring Button States & the Button Library

Chapter 4: IMPORTING & MODIFYING GRAPHICS (27 min)

Importing Bitmap Graphics & Basic Shape Modifications
Importing & Working with Vector Objects
Importing an Illustrator File into Flash
Importing a Photoshop File into Flash

Chapter 5: WORKING WITH TEXT 37 min)

Selecting Text & Other Basic Techniques
Modifying Text Properties
Breaking Text Apart & Converting Text to Shapes
Working with TLF Text

Chapter 6: THE BASICS OF ANIMATION (77 min)

Timeline Basics & Using Layers
Animating Text with Shape Tweens & Creating Frames & Keyframes
Creating a Frame-by-Frame Animation & Onion Skin Part 1
Creating a Frame-by-Frame Animation & Onion Skin Part 2
Using Motion Tweens & Creating a Motion Tween along a Path
Working with the Motion Editor
Using Inverse Kinematics

Chapter 7: ADDING SIMPLE CONTROLS TO VIDEO WITH ACTIONSCRIPT (38 min)

Importing & Transcoding Video
Setting Import Options & Choosing a Player Skin
Using Adobe Media Encoder to Create Cue Points
Using Code Snippets & Adding Actions to Buttons
Adding Sounds to Button States

Chapter 8: PUBLISHING & EXPORTING FLASH DOCUMENTS (13 min)

Setting Accessibility Options
Overview of Flash Publish Settings
Simulating a Download & Exporting a Movie
Credits

Video
ID : 1
Format : AVC
Format/Info : Advanced Video Codec
Format profile : Main@L3.1
Format settings, CABAC : No
Format settings, ReFrames : 2 frames
Codec ID : avc1
Codec ID/Info : Advanced Video Coding
Duration : 8mn 20s
Bit rate mode : Variable
Bit rate : 533 Kbps
Width : 960 pixels
Height : 540 pixels
Display aspect ratio : 16:9
Frame rate mode : Constant
Frame rate : 30.000 fps
Color space : YUV
Chroma subsampling : 4:2:0
Bit depth : 8 bits
Scan type : Progressive
Bits/(Pixel*Frame) : 0.034
Stream size : 31.8 MiB (73%)
Language : English
Encoded date : UTC 2012-07-20 21:34:39
Tagged date : UTC 2012-07-20 21:41:23
Color primaries : BT.709-5, BT.1361, IEC 61966-2-4, SMPTE RP177
Transfer characteristics : BT.709-5, BT.1361
Matrix coefficients : BT.709-5, BT.1361, IEC 61966-2-4 709, SMPTE RP177

Audio
ID : 2
Format : AAC
Format/Info : Advanced Audio Codec
Format version : Version 4
Format profile : LC
Codec ID : 40
Duration : 8mn 20s
Bit rate mode : Constant
Bit rate : 90.1 Kbps
Nominal bit rate : 96.0 Kbps
Channel(s) : 2 channels
Channel positions : Front: L R
Sampling rate : 44.1 KHz
Compression mode : Lossy
Stream size : 5.37 MiB (12%)
Language : English
Encoded date : UTC 2012-07-20 21:34:39
Tagged date : UTC 2012-07-20 21:41:23

Menu
ID : 3
Language : English
Encoded date : UTC 2012-07-20 21:34:39
Tagged date : UTC 2012-07-20 21:41:23


Total Training - Adobe Flash Professional CS6 Essentials (2013)

Total Training - Adobe Flash Professional CS6 Essentials (2013)


Feel free to contact me when links are dead