Subcategories

Praxistraining Fotografie: Fotografieren leicht gemacht [repost]

Posted By: ParRus
Praxistraining Fotografie: Fotografieren leicht gemacht [repost]

Praxistraining Fotografie: Fotografieren leicht gemacht
Flash Video in an Interactive Shell | German | FLV | 1280 x 720 | AVC ~1201 kbps | 25 fps
AAC | 64 Kbps | 44.1 KHz | 2 channels | ~6 hours | 5.3 GB
Genre: eLearning Video / Photography

Das bestmögliche Bild – auch mit Alltagssituationen oder einfachen Mitteln – das ist das Ziel, das Martin Gommel mit diesem Video-Training verfolgt. Als Betreiber von kwerfeldein.de ist er tagtäglich mit vielen Fotoenthusiasten in Kontakt. Er weiß, welche Fragen und Herausforderungen angehende Fotografen beschäftigen und gibt Anregungen, wie diese bewältigt werden können. Dazu gehören Tipps & Tricks zur Landschafts-, Makro- und Portraitfotografie genauso wie zum theoretischen Hintergrund, Ausrüstung, Bildbearbeitung oder der Veröffentlichung im Internet. Begleiten Sie Martin Gommel ins Studio oder Outdoor und sehen Sie live, wie ansprechende Fotos entstehen!
Inspiration und Motivation
Viel fotografieren 02:12
Mit Frust umgehen 02:51
Inspiration 02:37
Ziele 02:12
Vergleichen mit anderen 02:50
Grundlagen der Fotografie
Die Belichtungszeit 01:54
Die Blende 02:11
ISO 03:25
Verschiedene Kameratypen
Analoge Spiegelreflexkamera 03:19
Kompaktkamera 02:31
Digitale Spiegelreflexkamera 02:33
DSLR: Ein Objektiv wechseln 02:46
DSLR: Die Abblendtaste 01:55
M, Av, Tv, P -> Die Belichtungsvoreinstellungen 06:00
Das LCD 04:08
Minitipp: Bilder niemals von der Karte löschen 01:19
Bildrauschen - was ist das? 04:28
Objektive
Superweitwinkel 06:07
Weitwinkel 03:37
Telezoom 04:25
Makro 04:16
Festbrennweiten 03:45
Der Aufsteckblitz
Aufsteckblitz 06:39
Indirekter Blitz 03:30
Aufsteckblitz M-Modus 02:38
JPG vs. Raw
JPG 01:43
Raw 02:15
Das Stativ
Für was brauche ich denn ein Stativ? 05:00
Muss es ein teures Stativ sein? 08:17
Fotografieren in der Praxis
Landschaften
Objektive: Weitwinkel, Superweitwinkel und Tele 03:58
Komposition: Drittelregel 03:03
Vordergrund 03:59
Reihenbelichtungen 04:31
Langzeitbelichtungen 03:43
Sonnenuntergänge/Sonnenaufgänge 05:51
Lichtverhältnisse 02:38
C&S-Kurven 02:41
Bäume fotografieren 06:47
Menschen
Objektive: Festbrennweite, Weitwinkel, Tele 03:59
Komposition: Drittelregel (brechen) 03:56
Close-ups im Freien: Wo man (wie) fotografieren kann 03:23
Ganzkörperporträts im Freien: Menschen in ihre Umgebung einhüllen 03:33
Sprechen mit Menschen beim Fotografieren 04:00
Perspektiven 04:34
Natürlich wirkende Momente einfangen 05:03
Schärfe/Unschärfe 02:21
Highkey 03:37
Lowkey 02:58
Mensch und Landschaft (Weitwinkel) 03:36
Bildbearbeitung/Verwaltung
Adobe Lightroom
Die Oberfläche 02:53
Bibliothek: Fotos importieren und verschlagworten 01:38
Die Suchfunktion in Lightroom 01:34
Bibliothek: Aussortieren von Fotos mit Markierungen und automatisches Weiterschalten 02:25
Entwickeln: Die Oberfläche minimalistisch einstellen 01:08
Entwickeln: Die Grundeinstellungen 02:25
Entwickeln: Ein Foto in Schwarzweiß umwandeln 03:49
Entwickeln: Die Teiltonung 02:27
Entwickeln: Den Himmel düsterer machen 02:47
Entwickeln: Eine Vignettierung hinzufügen 03:18
Entwickeln: Mit dem Korrekturpinsel Augen aufhellen 02:47
Entwickeln: Die Vorher/Nachher-Ansicht einstellen 02:36
Entwickeln: Virtuelle Kopien erstellen 03:24
Entwickeln: Sensorstaub mit der Bereichsreparatur entfernen 03:02
Diashow: Eine Diashow erstellen 07:31
Photoshop CS4
Ein Foto importieren 02:01
Wie Photoshop aufgebaut ist 01:15
Wichtige Werkzeuge 06:39
Ebenen 04:30
Kontraste mit der Tonwertkorrektur anheben 03:27
Selektiv schärfen (auch fürs Web) 02:42
Einen Rahmen ziehen 01:59
Den Horizont begradigen/verkrümmen 04:23
Mit Einstellungsebenen nondestruktiv arbeiten 05:14
Ein Raw in Lightroom optimieren (zwei Fotos) 07:41
Mehrfachbelichtungen zusammenfügen 07:17
Mit Tiefen/Lichter feine Details aus den Schatten holen 05:09
iPhoto
Erste Anpassungen in iPhoto 02:36
Kontrastanpassungen in iPhoto 02:00
Zuschneiden und Begradigen 03:03
Ein bzw. mehrere Fotos zu Flickr und Facebook hochladen 02:13
GIMP
Die Oberfläche 02:44
Ein Foto in ein Sepia umwandeln 02:57
Raw-Fotos in GIMP 03:33
Fotografie im Internet
Flickr, Ipernity, Deviantart, 23hq 08:45
Flickr: Sprache umstellen und Profil einrichten 05:57
Ein Foto in Flickr hochladen & der Upload 05:18
Gruppen nutzen 07:26
Kommentare und Favoriten 04:47
Layout + Sets 04:01
Kontakte 04:45
Populäre Beiträge: Explore 02:49
Flickr: Greasemonkey Scripts & 1 Firefox-Addon 07:43
Creative Commons 08:10
Blogs
Was ist ein Blog? 06:08
Auf WordPress.com einen Account anlegen 04:32
Mit WordPress einen Blog erstellen 10:05

More Info: http://www.video2brain.com/de/videotraining/praxistraining-fotografie-fotografieren-leicht-gemacht

General
Complete name : 395_02_05_01.flv
Format : MPEG-4
Format profile : Adobe Flash
Codec ID : f4v
File size : 55.8 MiB
Duration : 6mn 6s
Overall bit rate mode : Variable
Overall bit rate : 1 275 Kbps
Encoded date : UTC 2009-10-06 07:39:24
Tagged date : UTC 2009-10-06 07:39:24
Video #1
ID : 1
Format : AVC
Format/Info : Advanced Video Codec
Format profile : Main@L4.1
Format settings, CABAC : Yes
Format settings, ReFrames : 4 frames
Format settings, GOP : M=4, N=33
Codec ID : avc1
Codec ID/Info : Advanced Video Coding
Duration : 6mn 6s
Bit rate mode : Variable
Bit rate : 1 201 Kbps
Maximum bit rate : 2 200 Kbps
Width : 1 280 pixels
Height : 720 pixels
Display aspect ratio : 16:9
Frame rate mode : Constant
Frame rate : 25.000 fps
Standard : NTSC
Color space : YUV
Chroma subsampling : 4:2:0
Bit depth : 8 bits
Scan type : Progressive
Bits/(Pixel*Frame) : 0.052
Stream size : 52.5 MiB (94%)
Title : MainConcept
Language : English
Encoded date : UTC 2009-10-06 07:39:24
Tagged date : UTC 2009-10-06 07:39:24
Audio #2
ID : 2
Format : AAC
Format/Info : Advanced Audio Codec
Format profile : LC
Codec ID : 40
Duration : 6mn 6s
Bit rate mode : Constant
Bit rate : 64.0 Kbps
Channel(s) : 2 channels
Channel positions : Front: L R
Sampling rate : 44.1 KHz
Compression mode : Lossy
Stream size : 2.80 MiB (5%)
Language : English
Encoded date : UTC 2009-10-06 07:39:24
Tagged date : UTC 2009-10-06 07:39:24
Material_Duration : 366968
Material_StreamSize : 2936118
Screenshots

Praxistraining Fotografie: Fotografieren leicht gemacht [repost]

Praxistraining Fotografie: Fotografieren leicht gemacht [repost]

Praxistraining Fotografie: Fotografieren leicht gemacht [repost]

Praxistraining Fotografie: Fotografieren leicht gemacht [repost]

You can find my other Praxistraining Fotografie-posts: here

For more, Visit my AH-blog

no mirrors please, Follow The Rules