Subcategories

Emory University: Coursera - Introduction to Digital Sound Design (2013)

Posted By: ParRus
Emory University: Coursera - Introduction to Digital Sound Design (2013)

Emory University: Coursera - Introduction to Digital Sound Design (2013)
DVDRip | English | MP4 | 960 x 540 | AVC ~523 kbps | 29.970 fps
AAC | 128 Kbps | 44.1 KHz | 2 channels | Subs: English (srt) | ~12 hours | 1.45 GB
Genre: eLearning Video / Sound Processing

Sound has always been a significant part of human experience. It shapes and transforms our everyday world. Sounds and music are embedded in almost every aspect of daily life, from communication and artistic expression to commerce, politics, and our social and cultural identities.
This course will provide an overview of the fundamental principles of sound and the factors that determine our audio perception. It will explore techniques of recording, mixing, processing, synthesis, sampling, analysis, and editing of digital audio using freely distributed audio production software for both PC and Mac. Students will also learn an array of sound design and editing techniques for use in film and web-based media, art installations, soundscape creations, or live and internet music performances.

Week 1: THE NATURE OF SOUND

Sound
1. The Human Ear
2. The Six Properties of Sound
- Pitch
- Loudness and Amplitude
- Timbre
- Perceived Duration
- Envelope and Articulation
- Spatial Location, Diffusion, Reverberant Environment
3. Timbre and the Overtone Series
4. Music and the Human Condition
5. SOFTWARE Tutorial: Sonic Visualizer
6. Music and the Environment

Week 2: MUSIC TECHNOLOGY - BASICS

Recording
1. Microphones
2. Mixer Basics
3. Digital Audio File Formats
4. Musical Instrument Digital Interface MIDI
5. Digital Audio Effects
6. SOFTWARE Tutorial: Audacity Audio Processing
7. TEST 1

Week 3: MUSIC TECHNOLOGY - SYNTHESIS

1. SOFTWARE Tutorial: Soundation Web-based Digital Audio Workstation
2. Synthesis
- Oscillators
- Filters
- Envelope Generators
- Modulation with LFOs
- Amplitude Modulation
- Frequency Modulation
- Granular Synthesis
- Physical Modeling
3. SOFTWARE Tutorials: Mammut, Hydrogen
4. Sound Project Using Soundation
posted on SoundCloud website

Week 4: CREATIVE STRATEGIES

1. Sonification
2. Sound for Visual Media
3. Mobile Interactions
4. SOFTWARE (Brief Introductions): Max, Pure Data, Kyma, Supercollider, Logic Pro, Ableton Live, Avid ProTools
5. TEST 2

More Info: https://www.coursera.org/course/digitalsounddesign

General
Complete name : 2 - 3 - Mixer Basics Part One (1210).mp4
Format : MPEG-4
Format profile : Base Media
Codec ID : isom
File size : 57.3 MiB
Duration : 12mn 10s
Overall bit rate : 658 Kbps
Writing application : Lavf53.29.100
Video #1
ID : 1
Format : AVC
Format/Info : Advanced Video Codec
Format profile : High@L3.1
Format settings, CABAC : Yes
Format settings, ReFrames : 4 frames
Codec ID : avc1
Codec ID/Info : Advanced Video Coding
Duration : 12mn 10s
Bit rate : 523 Kbps
Width : 960 pixels
Height : 540 pixels
Display aspect ratio : 16:9
Frame rate mode : Constant
Frame rate : 29.970 fps
Color space : YUV
Chroma subsampling : 4:2:0
Bit depth : 8 bits
Scan type : Progressive
Bits/(Pixel*Frame) : 0.034
Stream size : 45.6 MiB (79%)
Writing library : x264 core 120 r2120 0c7dab9
Encoding settings : cabac=1 / ref=3 / deblock=1:0:0 / analyse=0x3:0x113 / me=hex / subme=7 / psy=1 / psy_rd=1.00:0.00 / mixed_ref=1 / me_range=16 / chroma_me=1 / trellis=1 / 8x8dct=1 / cqm=0 / deadzone=21,11 / fast_pskip=1 / chroma_qp_offset=-2 / threads=12 / sliced_threads=0 / nr=0 / decimate=1 / interlaced=0 / bluray_compat=0 / constrained_intra=0 / bframes=3 / b_pyramid=2 / b_adapt=1 / b_bias=0 / direct=1 / weightb=1 / open_gop=0 / weightp=2 / keyint=250 / keyint_min=25 / scenecut=40 / intra_refresh=0 / rc_lookahead=40 / rc=crf / mbtree=1 / crf=28.0 / qcomp=0.60 / qpmin=0 / qpmax=69 / qpstep=4 / ip_ratio=1.40 / aq=1:1.00
Audio #2
ID : 2
Format : AAC
Format/Info : Advanced Audio Codec
Format profile : LC
Codec ID : 40
Duration : 12mn 10s
Bit rate mode : Constant
Bit rate : 128 Kbps
Channel(s) : 2 channels
Channel positions : Front: L R
Sampling rate : 44.1 KHz
Compression mode : Lossy
Stream size : 11.1 MiB (19%)
Screenshots

Emory University: Coursera - Introduction to Digital Sound Design (2013)

Emory University: Coursera - Introduction to Digital Sound Design (2013)

Emory University: Coursera - Introduction to Digital Sound Design (2013)

Emory University: Coursera - Introduction to Digital Sound Design (2013)

Emory University: Coursera - Introduction to Digital Sound Design (2013)

You can find my other Coursera-posts: here
For more, Visit my AH-blog

no mirrors please, Follow The Rules