Subcategories

Praxistraining Fotografie: Objekte im Detail - Live am Set mit Eberhard Schuy (2 DVD)

Posted By: ParRus
Praxistraining Fotografie: Objekte im Detail - Live am Set mit Eberhard Schuy (2 DVD)

Praxistraining Fotografie: Objekte im Detail
Live am Set mit Eberhard Schuy (2 DVD)
Flash Video in an Interactive Shell | German | FLV | 1024 x 576 | VP6 ~1024 kbps | 15 fps
MP3 | 96.0 Kbps | 44.1 KHz | 1 channel | ~9 hours | 11.31 GB
Genre: eLearning Video / Photography

Objekte fotografisch gekonnt in Szene setzen – eine spannende Herausforderung für alle Fotografen! In diesem Video-Training legt Eberhard Schuy großen Wert darauf, konkrete Aufgabenstellungen aus seiner täglichen Praxis als gefragter Still-Life-Fotograf exakt zu erläutern. Begleiten Sie ihn Schritt für Schritt von der Idee, dem Aufbau eines Sets, der detaillierten Beleuchtung von Objekten bis hin zu den Einstellungen an der Kamera. Damit Sie alles gut nachvollziehen können, wird jeder Schritt live gezeigt! Dabei sind beeindruckende Aufnahmen oft viel einfacher zu bewerkstelligen, als man auf den ersten Blick vermuten möchte. Man benötigt weder ein großes Studio noch eine kostspielige Blitzanlage. Eine Kompaktkamera, eine Schreibtischlampe, ein paar Fotokartons und einfache Hilfsmittel wie ein alter Diaprojektor, kleine Spiegelreste, Glasplatten oder Styroporstücke genügen, um einfache Dinge zum wahren Objekt werden zu lassen.
Ausrüstung

Einführung in die Objektfotografie
02:55

Das Studio
02:28

Kameraausstattung - Einführung
06:19

Lichtausstattung - Einführung
05:57

Kameraausrüstung im Detail
09:06

Lichtausstattung im Detail

Der Schritt zur Blitzanlage
10:42

Vor- und Nachteile der Blitzanlage
04:28

Zusammenfassung

Studiolicht

Lichtformer - Überblick
02:44

Verschiedene Reflektoren
04:29

Reflektoren, Tuben und Waben
07:05

Licht- und Softboxen
08:02

Zusammenfassung

Lichtübungen

Aufbauten auf Untergrund
06:33

Aufnahmen auf Glasplatte
07:07

Aufnahmen auf Glasplatte - schwebende Objekte
02:49

Aufnahme auf Glasplatte - Das i-Tüpfelchen
02:37

Aufnahmetisch vs. Stativaufbau
11:18

Zusammenfassung

Studiohilfsmittel

Kleine Helfer
07:44

Aufheller und Abdunkler
05:35

Aufsteller und Fixierer
03:42

Professionelle Hilfsmittel
14:01

Zusammenfassung

Bilder in der Praxis

Kategorien
04:37

Sachaufnahme
06:56

Produktaufnahme
10:06

Still Life
08:30

Zusammenfassung

Bildgestaltung

Anordnen und Positionieren
04:34

Goldener Schnitt
06:43

Blickführende Bildteile
06:39

Bildkontraste
06:16

Zusammenfassung

Fotografie in der Praxis

Schreibtischlampe - Kirschen: Der Aufbau
03:53

Schreibtischlampe - Kirschen: Das Foto
09:54

Schreibtischlampe - Kastanien
03:35

Projektorlicht - Glühbirne
11:38

Projektorlicht - Die dampfende Tasse
05:50

Projektorlicht - Flasche und Glas
11:23

Striplight und Abschatter - Nur Wasser
13:08

Doppel- und Mehrfachbelichtung - Spülbürsten
18:33

Klares Licht - Knäckebrot mit Würstchen
09:01

Klare Idee - Fleischgabel trifft Fleischtomate
09:45

Spiegelung - der Gummistiefel
05:34

Bewegte Objekte - Scheren
14:03

Schattenhaft - Champagner
07:58

Klassisch - Birnen
10:55

Kontur zeigen - Rotweinglas
05:14

Kontrolliert - Fallende Knöpfe I
13:35

Kontrolliert - Fallende Knöpfe II
12:53

Zusammenfassung

Bildbearbeitung

Aufnahmen mit dem Diaprojektor

Glühbirne - Raw-Entwicklung
05:35

Glühbirne - Fein-Tuning in Photoshop
09:03

Dampfende Tasse - Raw-Entwicklung
09:22

Dampfende Tasse - Fein-Tuning in Photoshop
14:56

Glas & Flasche - Raw-Entwicklung
08:26

Glas & Flasche - Spiegelung und Vignettierung
07:08

Aufnahmen mit einfachem Equipment

Kastanien - Raw-Entwicklung
04:09

Kastanien - Composing und Farbstimmung
04:46

Kirschen - Raw-Entwicklung
04:36

Kirschen - Composing
13:06

Kirschen - Schlussbearbeitung
03:53

Birnen - Raw-Entwicklung
03:13

Birnen - Fein-Tuning in Photoshop
08:31

Klare Lichtführung

Wasserglas - Raw-Entwicklung und Spiegelung verfeinern
04:21

Wasserglas - Bearbeitung in Photoshop
07:13

Stiefel - Raw-Entwicklung und finale Bildbearbeitung in einem
04:54

Sekt - Bildauswahl und Raw-Entwicklung
03:46

Sekt - Bildbearbeitung
09:56

Rotwein - Bildbearbeitung
09:51

Effektvolle Fotos

Spülbürsten - Raw-Entwicklung und Photoshop
09:02

Spülbürsten als Druckdatei
04:18

Würstchen - zwei Aufnahmen im Composing
11:15

Tomate - Auswahl und Raw-Entwicklung
05:14

Tomate - Feintuning und Farbanpassungen
09:11

Scheren - Auswahl der besten Motive
05:45

Scheren - Composing und Farbanpassungen
06:26

Fallende Knöpfe - Bilderauswahl und Raw-Entwicklungen
05:00

Fallende Knöpfe - Composing und Retusche
10:28

Sachaufnahme/Produktaufnahme
05:27

Still Life
08:24

Zusammenfassung

More Info: http://www.video2brain.com/de/videotraining/praxistraining-fotografie–objekte-im-detail

General
Complete name : 468_05_02_05.flv
Format : Flash Video
File size : 11.4 MiB
Duration : 5mn 13s
Overall bit rate : 306 Kbps
Encoded date : Fri May 14 17:59:13 2010
Video
Format : VP6
Codec ID : 4
Duration : 5mn 13s
Bit rate : 1 024 Kbps
Width : 1 024 pixels
Height : 576 pixels
Display aspect ratio : 16:9
Frame rate mode : Constant
Frame rate : 15.000 fps
Bit depth : 8 bits
Bits/(Pixel*Frame) : 0.116
Stream size : 38.2 MiB
Audio
Format : MPEG Audio
Format version : Version 1
Format profile : Layer 3
Codec ID : 2
Codec ID/Hint : MP3
Duration : 5mn 13s
Bit rate mode : Constant
Bit rate : 96.0 Kbps
Channel(s) : 1 channel
Sampling rate : 44.1 KHz
Compression mode : Lossy
Stream size : 3.59 MiB (31%)
Screenshots

Praxistraining Fotografie: Objekte im Detail - Live am Set mit Eberhard Schuy (2 DVD)

Praxistraining Fotografie: Objekte im Detail - Live am Set mit Eberhard Schuy (2 DVD)

Praxistraining Fotografie: Objekte im Detail - Live am Set mit Eberhard Schuy (2 DVD)

Praxistraining Fotografie: Objekte im Detail - Live am Set mit Eberhard Schuy (2 DVD)

Praxistraining Fotografie: Objekte im Detail - Live am Set mit Eberhard Schuy (2 DVD)

For more, Visit my AH-blog

no mirrors please, Follow The Rules