Subcategories

Painting from the Outside In with Jim Wilcox [repost]

Posted By: ParRus
Painting from the Outside In with Jim Wilcox [repost]

Painting from the Outside In with Jim Wilcox
DVDRip | English | AVI | 720 x 544 | XviD ~506 kbps | 29.970 fps
MP3 | 102 kbps | 48.0 KHz | 2 channels | 4 hours | 1.05 GB
Genre: Video Tutorial / Drawing, Painting

This video on DVD also includes the following: Two demos show painting progress, paint mixing and application. Recommendations for traveling light but complete. Lectures and instructions on how to see, experience and paint a magnificent subject.
Jim Wilcox, an award winning painter, has provided essential landscape painting instruction on plein air study and on studio pieces from plein air study.
4 hours of art instruction - Jim first paints a 20" x 16" plein air painting and then returns to the studio to paint a 40" x 30" from the smaller plein air version. One camera shows him mixing his paints, another shows the canvas as he applies the paint, and the third shows Jim as he explains what he is doing and why he is doing it. Jim says, "Its like my plein air workshop, minus the personal abuse."
Jim Wilcox, an award winning painter, has provided essential landscape painting instruction on plein air study and on studio pieces from plein air study.

A full-time professional artist since 1969, Jim Wilcox has always striveJim 2d to perfect the use of light and color in his work, earning him high praise from art aficionados and critics alike. His majestic oil landscapes have earned him numerous honors and awards, including his recent selection as one of four 2001 Gilcrease Rendezvous featured artists. He was given the Grand Prize of $50,000 in the Arts for the Parks Competition in 1994. A member of the National Academy of Western Art, Wilcox won the 1987 Prix de West Award, as well as that show's Remington Award in both 2002 and 2007, and earned the Northwest Rendezvous Group's Jurors' Choice Award in 1986 and 1989.
Website Wilcox Gallery - http://www.wilcoxgallery.com/G_JimWilcox.htm

General
Complete name : im Wilcox Painting from the Outside In AVI.avi
Format : AVI
Format/Info : Audio Video Interleave
File size : 1.05 GiB
Duration : 4h 1mn
Overall bit rate : 622 Kbps
Writing application : VirtualDubMod 1.5.4.1 (build 2178/release)
Writing library : VirtualDubMod build 2178/release
Video #0
ID : 0
Format : MPEG-4 Visual
Format profile : AdvancedSimple@L5
Format settings, BVOP : Yes
Format settings, QPel : No
Format settings, GMC : No warppoints
Format settings, Matrix : Custom
Codec ID : XVID
Codec ID/Hint : XviD
Duration : 4h 1mn
Bit rate : 506 Kbps
Width : 720 pixels
Height : 544 pixels
Display aspect ratio : 4:3
Frame rate : 29.970 fps
Resolution : 24 bits
Colorimetry : 4:2:0
Scan type : Progressive
Bits/(Pixel*Frame) : 0.043
Stream size : 873 MiB (81%)
Writing library : XviD 1.2.1 (UTC 2008-12-04)
Audio #1
ID : 1
Format : MPEG Audio
Format version : Version 1
Format profile : Layer 3
Codec ID : 55
Codec ID/Hint : MP3
Duration : 4h 1mn
Bit rate mode : Variable
Bit rate : 102 Kbps
Nominal bit rate : 128 Kbps
Channel(s) : 2 channels
Sampling rate : 48.0 KHz
Resolution : 16 bits
Stream size : 177 MiB (16%)
Alignment : Aligned on interleaves
Interleave, duration : 24 ms (0.72 video frame)
Interleave, preload duration : 473 ms
Writing library : LAME3.98r
Encoding settings : -m j -V 4 -q 2 -lowpass 17 –abr 128
Language : English

Screenshots

Painting from the Outside In with Jim Wilcox [repost]

Painting from the Outside In with Jim Wilcox [repost]

Painting from the Outside In with Jim Wilcox [repost]

Painting from the Outside In with Jim Wilcox [repost]

For more, Visit my AH-blog

no mirrors please, Follow The Rules
Download:
Filepost.com