Subcategories

Parelli Liberty and Horse Behavior

Posted By: Polik88
Parelli Liberty and Horse Behavior

Parelli Liberty and Horse Behavior
DVDRip | English | AVI/XVID 29.970 fps 1219 Kbps | 600x452 | AC3 448 Kbps 48.0 khz | 2 channels | 7.04 GB
Genre: Video Training

This high powered course was based on an effective program taught at the Parelli Centers. It was produced for home study due to the overwhelming response. Liberty & Horse Behavior teaches you one of the greatest skills a horseman can have, "being able to read horses." This course delves deep into the equine mind and teaches people to understand how to interact more effectively thus gaining greater perceptions around how and why communication via the Seven Games works. This course teaches the skills of Liberty through excellent On Line preparation leading to very high levels of execution.
General
Complete name : Parelli Liberty And Horse Behaviour\Parelli Liberty And Horse Behaviour Disc 1\PARELLI_DISC_1.Title1.avi
Format : AVI
Format/Info : Audio Video Interleave
File size : 122 MiB
Duration : 9mn 58s
Overall bit rate : 1 708 Kbps
Movie name : PARELLI_DISC_1.Title1.DVDRip
Writing application : Lavf52.33.0
Original source form/Name : PARELLI_DISC_1

Video
ID : 0
Format : AVC
Format/Info : Advanced Video Codec
Format profile : Baseline@L1.3
Format settings, CABAC : No
Format settings, ReFrames : 1 frame
Codec ID : H264
Duration : 9mn 57s
Bit rate : 1 219 Kbps
Width : 600 pixels
Height : 452 pixels
Display aspect ratio : 4:3
Frame rate : 29.970 fps
Color space : YUV
Chroma subsampling : 4:2:0
Bit depth : 8 bits
Scan type : Progressive
Bits/(Pixel*Frame) : 0.150
Stream size : 89.0 MiB (73%)
Writing library : x264 core 67
Encoding settings : cabac=0 / ref=1 / deblock=0:0:0 / analyse=0x1:0 / me=dia / subme=8 / psy_rd=1.0:0.0 / mixed_ref=0 / me_range=4 / chroma_me=1 / trellis=0 / 8x8dct=0 / cqm=0 / deadzone=21,11 / chroma_qp_offset=-2 / threads=8 / nr=0 / decimate=1 / mbaff=0 / bframes=0 / keyint=250 / keyint_min=25 / scenecut=0 / rc=abr / bitrate=1219 / ratetol=6.7 / qcomp=0.50 / qpmin=10 / qpmax=31 / qpstep=3 / ip_ratio=1.25 / aq=1:1.00:10.00

Audio
ID : 1
Format : AC-3
Format/Info : Audio Coding 3
Mode extension : CM (complete main)
Format settings, Endianness : Big
Codec ID : 2000
Duration : 9mn 58s
Bit rate mode : Constant
Bit rate : 448 Kbps
Channel(s) : 2 channels
Channel positions : Front: L R
Sampling rate : 48.0 KHz
Bit depth : 16 bits
Compression mode : Lossy
Stream size : 31.9 MiB (26%)
Alignment : Aligned on interleaves
Interleave, duration : 32 ms (0.96 video frame)
Interleave, preload duration : 32 ms

Screenshots

Parelli Liberty and Horse Behavior

Parelli Liberty and Horse Behavior

Parelli Liberty and Horse Behavior

no mirrors please, Follow The Rules
Visit Polik88 Blog Here
no password