Subcategories

VisCorbel: Romantic Bedroom [repost]

Posted By: ParRus
VisCorbel: Romantic Bedroom [repost]

VisCorbel: Romantic Bedroom
English | MP4 + Project Files | 1280 x 864 | AVC ~808 Kbps | 15 fps
AAC | 188 kbps | 44.1 KHz | 1 channel | 06:22:32 | 3.08 GB
Genre: Video Tutorial / 3Ds Max, VRay, Photoshop

Learn how to create this Bedroom Scene from A to Z!

Here are some of the topics covered:
Polygon modeling complex furniture and the room
Cloth simulations (Duvet, pillow edges, bedside tables and curtains)
UVW Unwrapping
Material creation with VRay
Interior lighting setup
Post-Production in Photoshop

Software Used: 3Ds Max, VRay, Photoshop

General
Complete name : 04_Making_the_table_lamp.mp4
Format : MPEG-4
Format profile : Base Media / Version 2
Codec ID : mp42
File size : 114 MiB
Duration : 16mn 1s
Overall bit rate : 998 Kbps
Encoded date : UTC 2012-02-07 21:17:55
Tagged date : UTC 2012-02-07 21:17:55
Video #1
ID : 1
Format : AVC
Format/Info : Advanced Video Codec
Format profile : High@L3.2
Format settings, CABAC : Yes
Format settings, ReFrames : 4 frames
Codec ID : avc1
Codec ID/Info : Advanced Video Coding
Duration : 16mn 1s
Bit rate mode : Variable
Bit rate : 808 Kbps
Width : 1 280 pixels
Height : 864 pixels
Display aspect ratio : 3:2
Frame rate mode : Constant
Frame rate : 15.000 fps
Color space : YUV
Chroma subsampling : 4:2:0
Bit depth : 8 bits
Scan type : Progressive
Bits/(Pixel*Frame) : 0.049
Stream size : 92.6 MiB (81%)
Language : English
Encoded date : UTC 2012-02-07 21:17:55
Tagged date : UTC 2012-02-07 21:17:55
Material_Duration : 961267
Material_StreamSize : 97116974
Material_FrameCount : 14419
Color primaries : BT.709-5, BT.1361, IEC 61966-2-4, SMPTE RP177
Transfer characteristics : BT.709-5, BT.1361
Matrix coefficients : BT.709-5, BT.1361, IEC 61966-2-4 709, SMPTE RP177
Audio #2
ID : 2
Format : AAC
Format/Info : Advanced Audio Codec
Format profile : LC
Codec ID : 40
Duration : 16mn 1s
Bit rate mode : Constant
Bit rate : 188 Kbps
Channel(s) : 2 channels
Channel positions : Front: L R
Sampling rate : 44.1 KHz
Compression mode : Lossy
Stream size : 21.5 MiB (19%)
Language : English
Encoded date : UTC 2012-02-07 21:17:55
Tagged date : UTC 2012-02-07 21:17:55
Material_Duration : 961260
Material_StreamSize : 22587090
Screenshots

VisCorbel: Romantic Bedroom [repost]

VisCorbel: Romantic Bedroom [repost]

VisCorbel: Romantic Bedroom [repost]

VisCorbel: Romantic Bedroom [repost]

VisCorbel: Romantic Bedroom [repost]

For more, Visit my AH-blog

VisCorbel: Romantic Bedroom [repost]