Subcategories

Vespers: Synthesis 101 - Online Course (2012)

Posted By: ParRus
Vespers: Synthesis 101 - Online Course (2012)

Vespers: Synthesis 101 - Online Course
English | MP4 | 1280 x 720 | AVC ~370 Kbps | 30 fps
AAC | 96 kbps | 44.1 KHz | 2 channel | 01:19:56 | 274 MB
Genre: Video Tutorial / Sound Processing (2012)

Tired of using other people’s played-out presets? Time to learn how to design your own sounds! This series will help you to get familiar with synthesis. It will equip you with the skills to create tons of new sounds and build your own unique arsenal of signature patches. The sky is not the limit, it’s your playground!
Synthesis is one of the core skills of a professional music producer. Imagine being able to hear a sound in your head, and recreate it in no time using your favorite synth? We all know that developing your own unique sound is a key ingredient to creating music people recognize and remember. Your new abilities with synthesis will empower you to start cultivating your own distinct sound.
If you have ever opened up a synth and felt lost, overwhelmed, or intimidated…this course is for you! Pretty much any synth, regardless of it’s make or interface, has the same “guts”; the same fundamental components: Oscillators, envelopes, filters, LFOs etc. After completing this series, you will be able to open the vast majority of synthesizers, easily identify these components, and quickly start making the sounds you want.
Knowing what each parameter does, and knowing how to USE them are two different things. In this series, we cover both. You’ll be introduced to the main parameters in synthesis, and then shown practical examples of how to use them. This combination of theory with real-world application will make sure you’re making leaps and bounds forward in your skills in the shortest period of time. We’re all about impact.
Synthesis can seem very complex to a new producer. Rest assured that we break things down into easily understood, bite-sized chunks. During the series, you’ll get comfortable with all the technical lingo and we’ll demystify the process of generating sound. You’ll emerge feeling capable and confident in your knowledge, vocabulary and abilities. Let’s do this!

Content:
01. Protecting your speakers and hearing
02. Overview of a synthesizer
03. Oscillators
04. Frequency and pitch
05. Basic waveforms
06. Monophonic and polyphonic
07. Glide and portomento
08. Introduction to filters
09. Basic filter types
10. Amplifier stage
11. Intro to modulators
12. MIDI modulators
13. Low frequency modulators (LFOs)
14. Envelopes
15. Introduction to frequency modulation (FM) synthesis
16. Introduction to additive synthesis
17. Introduction to granular synthesis
18. Introduction to physical modeling synthesis
19. Introduction to wavetable synthesis
20. Analog Pad
21. Analog Wobble Bass
22. Analog Womp Rat Bass

MoreInfo: www.vespers.ca/shop/workshops-and-classes/synthesis-101-online-course/

General
Complete name : synthesis-101-03-Loscillators.mp4
Format : MPEG-4
Format profile : Base Media
Codec ID : isom
File size : 9.71 MiB
Duration : 2mn 52s
Overall bit rate mode : Variable
Overall bit rate : 473 Kbps
Encoded date : UTC 2012-12-18 06:21:04
Tagged date : UTC 2012-12-18 06:21:04
Writing application : Lavf54.6.100
Video #1
ID : 1
Format : AVC
Format/Info : Advanced Video Codec
Format profile : Main@L3.1
Format settings, CABAC : Yes
Format settings, ReFrames : 4 frames
Codec ID : avc1
Codec ID/Info : Advanced Video Coding
Duration : 2mn 51s
Bit rate : 370 Kbps
Width : 1 280 pixels
Height : 720 pixels
Display aspect ratio : 16:9
Frame rate mode : Constant
Frame rate : 30.000 fps
Color space : YUV
Chroma subsampling : 4:2:0
Bit depth : 8 bits
Scan type : Progressive
Bits/(Pixel*Frame) : 0.013
Stream size : 7.57 MiB (78%)
Writing library : x264 core 122 r2184 5c85e0a
Encoding settings : cabac=1 / ref=3 / deblock=1:0:0 / analyse=0x1:0x111 / me=hex / subme=7 / psy=1 / psy_rd=1.00:0.00 / mixed_ref=1 / me_range=16 / chroma_me=1 / trellis=1 / 8x8dct=0 / cqm=0 / deadzone=21,11 / fast_pskip=1 / chroma_qp_offset=-2 / threads=4 / sliced_threads=0 / nr=0 / decimate=1 / interlaced=0 / bluray_compat=0 / constrained_intra=0 / bframes=3 / b_pyramid=2 / b_adapt=1 / b_bias=0 / direct=1 / weightb=1 / open_gop=0 / weightp=2 / keyint=120 / keyint_min=12 / scenecut=40 / intra_refresh=0 / rc_lookahead=40 / rc=crf / mbtree=1 / crf=23.0 / qcomp=0.60 / qpmin=0 / qpmax=69 / qpstep=4 / ip_ratio=1.40 / aq=1:1.00
Encoded date : UTC 2012-12-18 06:21:04
Tagged date : UTC 2012-12-18 06:21:04
Audio #2
ID : 2
Format : AAC
Format/Info : Advanced Audio Codec
Format profile : LC
Codec ID : 40
Duration : 2mn 52s
Bit rate mode : Variable
Bit rate : 96.0 Kbps
Maximum bit rate : 112 Kbps
Channel(s) : 2 channels
Channel positions : Front: L R
Sampling rate : 44.1 KHz
Compression mode : Lossy
Stream size : 1.96 MiB (20%)
Language : English
Encoded date : UTC 2012-12-18 06:21:04
Tagged date : UTC 2012-12-18 06:21:04
Screenshots

Vespers: Synthesis 101 - Online Course (2012)

Vespers: Synthesis 101 - Online Course (2012)

Vespers: Synthesis 101 - Online Course (2012)

For more, Visit my AH-blog

no mirrors please, Follow The Rules