Subcategories

Video2Brain - Adobe Photoshop Lightroom 4: New Features Workshop (2012)

Posted By: house23
Video2Brain - Adobe Photoshop Lightroom 4: New Features Workshop (2012)

Video2Brain - Adobe Photoshop Lightroom 4: New Features Workshop (2012)
MP4 | AVC 186kbps | English | 1280x720 | 15fps | 2h 10mins | AAC stereo 64kbps | 326 MB
Genre: Video Training

Adobe Photoshop Lightroom 4 includes some extremely powerful new features. In this workshop photographer and author Mikkel Aaland shows you what´s new and how to put these new features to work. You’ll learn about the new process version and how it improves the way images are processed in Lightroom, as well as changes to the Develop module’s Basic pane, which now offers much more intuitive controls. You’ll also be introduced to the new modules in Lightroom 4, the Map and Book modules, which make it easy to sort your photos by location and create great photo books, respectively. Other new features covered here include soft proofing, upgraded video editing capabilities, and many more.


Format : MPEG-4
Format profile : Base Media / Version 2
Codec ID : mp42
File size : 15.4 MiB
Duration : 8mn 32s
Overall bit rate : 252 Kbps
Encoded date : UTC 2012-03-02 13:27:23
Tagged date : UTC 2012-03-02 13:27:23
Writing library : Apple QuickTime
Video #1
ID : 1
Format : AVC
Format/Info : Advanced Video Codec
Format profile : Baseline@L3.1
Format settings, CABAC : No
Format settings, ReFrames : 3 frames
Codec ID : avc1
Codec ID/Info : Advanced Video Coding
Duration : 8mn 32s
Bit rate mode : Variable
Bit rate : 186 Kbps
Width : 1 280 pixels
Height : 720 pixels
Display aspect ratio : 16:9
Frame rate mode : Constant
Frame rate : 15.000 fps
Standard : Component
Resolution : 24 bits
Colorimetry : 4:2:0
Scan type : Progressive
Bits/(Pixel*Frame) : 0.013
Stream size : 11.4 MiB (74%)
Encoded date : UTC 2012-03-02 13:27:23
Tagged date : UTC 2012-03-02 13:27:23
Audio #2
ID : 2
Format : AAC
Format/Info : Advanced Audio Codec
Format version : Version 4
Format profile : LC
Format settings, SBR : No
Format settings, PS : Yes
Codec ID : 40
Duration : 8mn 32s
Bit rate mode : Variable
Bit rate : 64.0 Kbps
Maximum bit rate : 68.2 Kbps
Channel(s) : 2 channels
Channel positions : Front: L R
Sampling rate : 44.1 KHz
Resolution : 16 bits
Stream size : 3.91 MiB (25%)
Encoded date : UTC 2012-03-02 13:27:23
Tagged date : UTC 2012-03-02 13:27:23


Video2Brain - Adobe Photoshop Lightroom 4: New Features Workshop (2012)

Video2Brain - Adobe Photoshop Lightroom 4: New Features Workshop (2012)

Video2Brain - Adobe Photoshop Lightroom 4: New Features Workshop (2012)

Video2Brain - Adobe Photoshop Lightroom 4: New Features Workshop (2012)


No mirrors please