Subcategories

Warhammer - How to Paint Citadel Miniatures (2012)

Posted By: ParRus
Warhammer - How to Paint Citadel Miniatures (2012)

Warhammer - How to Paint Citadel Miniatures (2012)
DVDRip | MKV + DjVu Workbook | 1000 x 576 | AVC ~1291 kbps | 25 fps
English, German, Spanish, French, Japanese | AC-3 | 192 Kbps | 48.0 KHz | 2 channels | 1h 31mn | 1.72 GB
Genre: eLearning Video / Painting, Hobby

When it comes to painting Citadel Miniatures, this book is an absolute must-have. This mighty tome is crammed full of information about painting; from undercoating your miniatures and applying your first layer of paint, right through to your final highlight.
To help you achieve great results there are 136 pages of articles on how to undercoat your models, how to apply Base Paints, Shades, Layers and Glazes, how to use Textured Paints, what Drybrushing is all about, how to use transfers, and many other techniques. There's even a 90-minute DVD included to show you how to put these techniques into practice and get the most out of the extensive Citadel Paint Range. The book also includes eight army projects, each of which is a complete army painting guide from start to finish.

And if that wasn't enough, the book has been designed to stand up on its own, so you don't need to wedge it underneath something to be able to see the stage-by-stage painting guides inside. All in all, this is one book that every hobbyist should own, whether you're new to painting Citadel miniatures, or a painting guru.

General
Complete name : Warhammer - How to Paint Citadel Miniatures.mkv
Format : Matroska
Format version : Version 1
File size : 1.72 GiB
Duration : 1h 31mn
Overall bit rate : 2 688 Kbps
Writing application : DivXMKVMux 3.4.1.0004
Writing library : libDivXMediaFormat 3.4.1.0004
Video #1
ID : 1
Format : AVC
Format/Info : Advanced Video Codec
Format profile : High@L4.0
MultiView_Count : 2
Format settings, CABAC : Yes
Format settings, ReFrames : 4 frames
Codec ID : V_MPEG4/ISO/AVC
Duration : 1h 31mn
Bit rate : 1 291 Kbps
Width : 1 000 pixels
Height : 576 pixels
Display aspect ratio : 16:9
Frame rate : 25.000 fps
Standard : PAL
Color space : YUV
Chroma subsampling : 4:2:0
Bit depth : 8 bits
Scan type : Progressive
Bits/(Pixel*Frame) : 0.090
Stream size : 846 MiB (48%)
Language : English
Color primaries : BT.709-5, BT.1361, IEC 61966-2-4, SMPTE RP177
Transfer characteristics : BT.709-5, BT.1361
Matrix coefficients : BT.709-5, BT.1361, IEC 61966-2-4 709, SMPTE RP177
Audio #2
ID : 2
Format : AC-3
Format/Info : Audio Coding 3
Mode extension : CM (complete main)
Codec ID : A_AC3
Duration : 1h 31mn
Bit rate mode : Constant
Bit rate : 192 Kbps
Channel(s) : 2 channels
Channel positions : Front: L R
Sampling rate : 48.0 KHz
Bit depth : 16 bits
Compression mode : Lossy
Stream size : 126 MiB (7%)
Language : English
Audio #3
ID : 3
Format : AC-3
Format/Info : Audio Coding 3
Mode extension : CM (complete main)
Codec ID : A_AC3
Duration : 1h 31mn
Bit rate mode : Constant
Bit rate : 192 Kbps
Channel(s) : 2 channels
Channel positions : Front: L R
Sampling rate : 48.0 KHz
Bit depth : 16 bits
Compression mode : Lossy
Stream size : 126 MiB (7%)
Language : German
Audio #4
ID : 4
Format : AC-3
Format/Info : Audio Coding 3
Mode extension : CM (complete main)
Codec ID : A_AC3
Duration : 1h 31mn
Bit rate mode : Constant
Bit rate : 192 Kbps
Channel(s) : 2 channels
Channel positions : Front: L R
Sampling rate : 48.0 KHz
Bit depth : 16 bits
Compression mode : Lossy
Stream size : 126 MiB (7%)
Language : English
Audio #5
ID : 5
Format : AC-3
Format/Info : Audio Coding 3
Mode extension : CM (complete main)
Codec ID : A_AC3
Duration : 1h 31mn
Bit rate mode : Constant
Bit rate : 192 Kbps
Channel(s) : 2 channels
Channel positions : Front: L R
Sampling rate : 48.0 KHz
Bit depth : 16 bits
Compression mode : Lossy
Stream size : 126 MiB (7%)
Language : Spanish
Audio #6
ID : 6
Format : AC-3
Format/Info : Audio Coding 3
Mode extension : CM (complete main)
Codec ID : A_AC3
Duration : 1h 31mn
Bit rate mode : Constant
Bit rate : 192 Kbps
Channel(s) : 2 channels
Channel positions : Front: L R
Sampling rate : 48.0 KHz
Bit depth : 16 bits
Compression mode : Lossy
Stream size : 126 MiB (7%)
Language : French
Audio #7
ID : 7
Format : AC-3
Format/Info : Audio Coding 3
Mode extension : CM (complete main)
Codec ID : A_AC3
Duration : 1h 31mn
Bit rate mode : Constant
Bit rate : 192 Kbps
Channel(s) : 2 channels
Channel positions : Front: L R
Sampling rate : 48.0 KHz
Bit depth : 16 bits
Compression mode : Lossy
Stream size : 126 MiB (7%)
Language : English
Audio #8
ID : 8
Format : AC-3
Format/Info : Audio Coding 3
Mode extension : CM (complete main)
Codec ID : A_AC3
Duration : 1h 31mn
Bit rate mode : Constant
Bit rate : 192 Kbps
Channel(s) : 2 channels
Channel positions : Front: L R
Sampling rate : 48.0 KHz
Bit depth : 16 bits
Compression mode : Lossy
Stream size : 126 MiB (7%)
Language : Japanese
Screenshots

Warhammer - How to Paint Citadel Miniatures (2012)

Warhammer - How to Paint Citadel Miniatures (2012)

Warhammer - How to Paint Citadel Miniatures (2012)

Warhammer - How to Paint Citadel Miniatures (2012)

Warhammer - How to Paint Citadel Miniatures (2012)

For more, Visit my AH-blog

no mirrors please, Follow The Rules