Tags
Language
Tags

Beyond Basic - Acoustic Blues Guitar - Keith Wyatt

Posted By: ParRus
Beyond Basic - Acoustic Blues Guitar - Keith Wyatt

Beyond Basic - Acoustic Blues Guitar - Keith Wyatt
DVDRip | English | AVI | 624 x 464 | XviD ~1412 kbps | 29.970 fps
MP3 192 Kbps 48.0 KHz | 2 channels | 01:05:26 | 659.1 MB
Genre: eLearning Video / Guitar lesson

Keith Wyatt gets you started right playing "down home" blues on your acoustic. Learn all the classic moves in the three popular keys, including open-string chords with melodic embellishments, turnarounds, and both slow and quick-change versions of the 12-bar blues progression. Youll also earn strum patterns, bass lines and the blues shuffle. Keith includes the use of a capo as well as a wealth of insight into this traditional and influential style.
Opening & Tuning (3:21)
Getting Started (5:33)
Open Position Chords (10:14)
Twelve Bar Blues Progression (6:32)
Building Rhythm Patterns (9:53)
Rhythm Patterns with Bass Lines (18:16)
Chord Patterns Key of A (7:16)
Using a Capo & Conclusion (4:18)

also You can find my other helpful guitar lesson-posts
(if old file-links don't show activity, try copy-paste them to the address bar)

General
Complete name : 02_-_Getting_Started.avi
Format : AVI
Format/Info : Audio Video Interleave
File size : 64.2 MiB
Duration : 5mn 33s
Overall bit rate : 1 615 Kbps
Writing application : VirtualDubMod 1.5.10.2 (build 2540/release)
Writing library : VirtualDubMod build 2540/release

Video
ID : 0
Format : MPEG-4 Visual
Format profile : Advanced Simple@L5
Format settings, BVOP : 1
Format settings, QPel : No
Format settings, GMC : No warppoints
Format settings, Matrix : Default (MPEG)
Codec ID : XVID
Codec ID/Hint : XviD
Duration : 5mn 33s
Bit rate : 1 412 Kbps
Width : 624 pixels
Height : 464 pixels
Display aspect ratio : 4:3
Frame rate : 29.970 (30000/1001) fps
Color space : YUV
Chroma subsampling : 4:2:0
Bit depth : 8 bits
Scan type : Progressive
Compression mode : Lossy
Bits/(Pixel*Frame) : 0.163
Stream size : 56.1 MiB (87%)
Writing library : XviD 64

Audio
ID : 1
Format : MPEG Audio
Format version : Version 1
Format profile : Layer 3
Mode : Joint stereo
Mode extension : MS Stereo
Codec ID : 55
Codec ID/Hint : MP3
Duration : 5mn 33s
Bit rate mode : Constant
Bit rate : 192 Kbps
Channel(s) : 2 channels
Sampling rate : 48.0 KHz
Compression mode : Lossy
Stream size : 7.63 MiB (12%)
Alignment : Aligned on interleaves
Interleave, duration : 33 ms (1.00 video frame)
Interleave, preload duration : 504 ms
Writing library : LAME3.99r
Encoding settings : -m j -V 4 -q 0 -lowpass 17 -b 192
Screenshots

Beyond Basic - Acoustic Blues Guitar - Keith Wyatt

Beyond Basic - Acoustic Blues Guitar - Keith Wyatt

Beyond Basic - Acoustic Blues Guitar - Keith Wyatt

Beyond Basic - Acoustic Blues Guitar - Keith Wyatt

Beyond Basic - Acoustic Blues Guitar - Keith Wyatt

✅ Exclusive eLearning Videos ParRus-blogadd to bookmarks
Feel free to contact me PM
when links are dead or want any repost

Beyond Basic - Acoustic Blues Guitar - Keith Wyatt