Subcategories

Ezra Firestone - Advanced Ecommerce Email Marketing (2017)

Posted By: ParRus
Ezra Firestone - Advanced Ecommerce Email Marketing (2017)

Ezra Firestone - Advanced Ecommerce Email Marketing (2017)
WEBRip | English | MP4 + FLV + PDF Guides | 1920 x 1080 | AVC ~1665 Kbps | 30 fps
AAC | 128 Kbps | 44.1 KHz | 2 channels | ~ 6 hours | 2.41 GB
Genre: eLearning Video / Business, Net: E-Commerce

Learn how to use advanced email marketing techniques to grow your ecommerce business. Email has the potential to be a huge revenue channel, and should account for 30-40% of your overall sales. In this training, you will learn how to increase sales by using automated and manual emails to convert new customers, create repeat customers, run lucrative sales, and more.
Price: $1497
More Info: Salepage


related:

Ezra Firestone – eCommerce All-Stars (2017)
Ezra Firestone – Ecommerce Marketing Master
Ezra Firestone - Traffic MBA 2.0 Facebook Video Ads Mastery
Ezra Firestone and Jason - Social Secrets 3.0
Ezra Firestone - The One Stop Shop (2017)
Ezra Firestone – Smart Marketer Community
Ezra Firestone & Justin Aquilia - Buy Media Like An Expert Webinar


also You can find my other last: Business-posts

General
Complete name : 1.5 .mp4
Format : MPEG-4
Format profile : Base Media
Codec ID : isom (isom/iso2/avc1/mp41)
File size : 157 MiB
Duration : 12 min 7 s
Overall bit rate : 1 806 kb/s
Season : 0
Movie name : mod1vid5
Album/Performer : Anthony Farrat
Part : 0

Video
ID : 1
Format : AVC
Format/Info : Advanced Video Codec
Format profile : High@L4
Format settings, CABAC : Yes
Format settings, ReFrames : 4 frames
Codec ID : avc1
Codec ID/Info : Advanced Video Coding
Duration : 12 min 7 s
Bit rate : 1 665 kb/s
Width : 1 920 pixels
Height : 1 080 pixels
Display aspect ratio : 16:9
Frame rate mode : Constant
Frame rate : 29.970 (29970/1000) FPS
Color space : YUV
Chroma subsampling : 4:2:0
Bit depth : 8 bits
Scan type : Progressive
Bits/(Pixel*Frame) : 0.027
Stream size : 145 MiB (92%)
Writing library : x264 core 129
Encoding settings : cabac=1 / ref=3 / deblock=1:0:0 / analyse=0x3:0x113 / me=hex / subme=7 / psy=1 / psy_rd=1.00:0.00 / mixed_ref=1 / me_range=16 / chroma_me=1 / trellis=1 / 8x8dct=1 / cqm=0 / deadzone=21,11 / fast_pskip=1 / chroma_qp_offset=-2 / threads=9 / lookahead_threads=1 / sliced_threads=0 / nr=0 / decimate=1 / interlaced=0 / bluray_compat=0 / constrained_intra=0 / bframes=3 / b_pyramid=2 / b_adapt=1 / b_bias=0 / direct=1 / weightb=1 / open_gop=0 / weightp=2 / keyint=250 / keyint_min=25 / scenecut=40 / intra_refresh=0 / rc_lookahead=40 / rc=abr / mbtree=1 / bitrate=1665 / ratetol=1.0 / qcomp=0.60 / qpmin=0 / qpmax=69 / qpstep=4 / ip_ratio=1.40 / aq=1:1.00
Menus : 3

Audio
ID : 2
Format : AAC
Format/Info : Advanced Audio Codec
Format profile : LC
Codec ID : 40
Duration : 12 min 7 s
Duration_LastFrame : 30 ms
Bit rate mode : Constant
Bit rate : 128 kb/s
Channel(s) : 2 channels
Channel positions : Front: L R
Sampling rate : 44.1 kHz
Frame rate : 43.066 FPS (1024 spf)
Compression mode : Lossy
Stream size : 11.1 MiB (7%)
Language : English
Default : Yes
Alternate group : 1

Menu
ID : 3
Codec ID : text
Duration : 12 min 7 s
Encoded date : UTC 2017-06-22 13:21:09
Tagged date : UTC 2017-06-22 13:21:09
Menu For : 1
00:00:00.000 : Chapter 1

Screenshots

Ezra Firestone - Advanced Ecommerce Email Marketing (2017)

Ezra Firestone - Advanced Ecommerce Email Marketing (2017)

Ezra Firestone - Advanced Ecommerce Email Marketing (2017)

Ezra Firestone - Advanced Ecommerce Email Marketing (2017)

Exclusive eLearning Videos ParRus-blogadd to bookmarks

Feel free to contact me PM
when links are dead or want any repost

Ezra Firestone - Advanced Ecommerce Email Marketing (2017)