Tags
Language
Tags

Akil Stokes & Jason Graystone - TierOneTrading - Trading Edge 2019 Aug. 19th-22nd

Posted By: ParRus
Akil Stokes & Jason Graystone - TierOneTrading - Trading Edge 2019 Aug. 19th-22nd

Akil Stokes & Jason Graystone - TierOneTrading
WEBRip | English | MP4 + PDF Guides | 1280 x 720 | AVC ~792 Kbps | 30 fps
AAC | 256 Kbps | 48.0 KHz | 2 channels | 10:42:13 | 3.58 GB
Genre: eLearning Video / Forex, Trading, Stock

Akil Stokes is a professional Forex Trader & Trading Coach. He runs his trading coach platform with Jason Graystone, which is called TierOneTrading.
What I like about Akil is that he tells the truth about trading and does not promote it as a get rich quick scheme. He is also very critical about using too many indicators and strongly encourages manual backtesting trading strategies before applying them on the market.

They had a free live event called Trading Edge from 19th of August, until 22nd of August in 2019. The events materials were available for public until 31th of August. I do believe they were extremely valuable so I decided to grab them while I could and share them with you.

also You can find my other useful: Trading-posts

General
Complete name : Day 1 - Session 3 - How To Establish A Routine That Gives You An Edge.mp4
Format : MPEG-4
Format profile : Base Media / Version 2
Codec ID : mp42 (isom/mp41/avc1)
File size : 168 MiB
Duration : 22 min 24 s
Overall bit rate mode : Variable
Overall bit rate : 1 049 kb/s
Encoded date : UTC 2019-09-10 08:35:42
Tagged date : UTC 2019-09-10 08:35:42
Writing library : Apple QuickTime
IsTruncated : Yes

Video
ID : 1
Format : AVC
Format/Info : Advanced Video Codec
Format profile : Main@L3.1
Format settings : CABAC / 3 Ref Frames
Format settings, CABAC : Yes
Format settings, RefFrames : 3 frames
Codec ID : avc1
Codec ID/Info : Advanced Video Coding
Duration : 22 min 24 s
Bit rate : 792 kb/s
Width : 1 280 pixels
Height : 720 pixels
Display aspect ratio : 16:9
Frame rate mode : Constant
Frame rate : 30.000 FPS
Color space : YUV
Chroma subsampling : 4:2:0
Bit depth : 8 bits
Scan type : Progressive
Bits/(Pixel*Frame) : 0.029
Stream size : 127 MiB (75%)
Language : English
Encoded date : UTC 2019-09-10 08:35:42
Tagged date : UTC 2019-09-10 08:35:42
Color range : Limited
Color primaries : BT.709
Transfer characteristics : BT.709
Matrix coefficients : BT.709

Audio
ID : 2
Format : AAC
Format/Info : Advanced Audio Codec
Format profile : LC
Codec ID : mp4a-40-2
Duration : 22 min 24 s
Bit rate mode : Variable
Bit rate : 256 kb/s
Channel(s) : 2 channels
Channel positions : Front: L R
Sampling rate : 48.0 kHz
Frame rate : 46.875 FPS (1024 SPF)
Compression mode : Lossy
Stream size : 40.6 MiB (24%)
Language : English
Encoded date : UTC 2019-09-10 08:35:42
Tagged date : UTC 2019-09-10 08:35:42

Screenshots

Akil Stokes & Jason Graystone - TierOneTrading - Trading Edge 2019 Aug. 19th-22nd

Akil Stokes & Jason Graystone - TierOneTrading - Trading Edge 2019 Aug. 19th-22nd

Akil Stokes & Jason Graystone - TierOneTrading - Trading Edge 2019 Aug. 19th-22nd

Akil Stokes & Jason Graystone - TierOneTrading - Trading Edge 2019 Aug. 19th-22nd

Akil Stokes & Jason Graystone - TierOneTrading - Trading Edge 2019 Aug. 19th-22nd

Exclusive eLearning Videos ParRus-blogadd to bookmarks

Akil Stokes & Jason Graystone - TierOneTrading - Trading Edge 2019 Aug. 19th-22nd