Subcategories

A Cloud Guru - AWS Certified Solutions Architect Associate 2020

Posted By: ParRus
A Cloud Guru - AWS Certified Solutions Architect Associate 2020

A Cloud Guru - AWS Certified Solutions Architect Associate 2020
WEBRip | English | MP4 + Project Files | 1280 x 720 | AVC ~158 kbps | 30 fps
AAC | 160 Kbps | 44.1 KHz | 2 channels | ~15 hours | 2.45 GB
Genre: eLearning Video / IT & Software, IT Certification, AWS Certification

AWS Certified Solutions Architect is among the most valuable and highly sought after cloud computing certifications in the world today We designed this cloud architect certification training for anyone seeking to learn the major components of Amazon Web Services (AWS).
By the end of the course, you'll be prepared to pass the associate-level AWS Certified Solutions Architect certification exam. The AWS certification is a must-have for any IT professional, with average salaries above $100,000 USD. A certificate in AWS Cloud technology can boost your salary up to 26 percent, and the average salary for certified IT professionals is, on average, 11.7 per cent higher than those without.

We’ll start with a broad overview of the AWS platform. No programming knowledge is needed, and no prior AWS experience required. Even if you have never logged into the AWS platform before, you’ll build the foundations to pass the AWS Certified Solutions Architect exam after completing our certification training.

We know that you’re busy, so our training course is made up of 5-20 minute videos that can be viewed at your convenience. Our video lessons keep-it-simple and explain things clearly and succinctly. Together we’ll walk you through each of the major areas of Amazon Web Services, step by step. Using real life examples, we will practice how to effectively design and manage application infrastructure using AWS. At the end of each section, we’ll also test your knowledge with short quizzes to make sure you’ll be ready for the exam.

Not only will we cover the fundamentals of AWS architectural principles and services, we will also deep dive into each of the individual elements: IAM, S3, Cloudfront, Storage Gateway, Snowball, EC2, Cloudwatch, CLI, Lambda, Route 53, RDS, Dynamo DB, Redshift, ElastiCache, Aurora, VPC, SQS, SNS, Elastic Transcoder, Kinesis, API Gateway and so on.

AWS is constantly evolving their platform. We will continuously update this course with new content so you will never have to worry about missing out or failing the AWS certification test because of new content.

The ideal student for this course is ready to quickly break into cloud computing. You don’t have hours to spend on training. We get you up to speed in half the time as other certification courses. The course will help you prepare for a position as a qualified AWS solutions architect.

At the end of this course, you’ll be able to confidently take the associate-level AWS Certified Solutions Architect exam, and earn one of the highest paying certifications in the industry.

Content:

19:57 Introduction
25:17 AWS - 10,000 Foot Overview
02:45:05 Identity Access Management & S3
02:57:22 EC2
01:11:03 Databases On AWS
58:59 Route53
02:00:14 VPCs
02:02:08 HA Architecture'
58:10 Applications
48:25 Serverless
04:55 Good Luck!

also You can find my other helpful AWS-posts
(if old file-links don't show activity, try copy-paste them to the address bar)

General
Complete name : 03_Build A Custom VPC - Part 2.mp4
Format : MPEG-4
Format profile : Base Media
Codec ID : isom (isom/iso2/avc1/mp41)
File size : 15.5 MiB
Duration : 6 min 38 s
Overall bit rate : 327 kb/s
Writing application : Lavf57.71.100

Video
ID : 2
Format : AVC
Format/Info : Advanced Video Codec
Format profile : Main@L3.1
Format settings : CABAC / 4 Ref Frames
Format settings, CABAC : Yes
Format settings, RefFrames : 4 frames
Codec ID : avc1
Codec ID/Info : Advanced Video Coding
Duration : 6 min 38 s
Bit rate : 158 kb/s
Width : 1 280 pixels
Height : 720 pixels
Display aspect ratio : 16:9
Frame rate mode : Constant
Frame rate : 30.000 FPS
Color space : YUV
Chroma subsampling : 4:2:0
Bit depth : 8 bits
Scan type : Progressive
Bits/(Pixel*Frame) : 0.006
Stream size : 7.50 MiB (48%)
Writing library : x264 core 148
Encoding settings : cabac=1 / ref=3 / deblock=1:0:0 / analyse=0x1:0x111 / me=hex / subme=7 / psy=1 / psy_rd=1.00:0.00 / mixed_ref=1 / me_range=16 / chroma_me=1 / trellis=1 / 8x8dct=0 / cqm=0 / deadzone=21,11 / fast_pskip=1 / chroma_qp_offset=-2 / threads=22 / lookahead_threads=3 / sliced_threads=0 / nr=0 / decimate=1 / interlaced=0 / bluray_compat=0 / constrained_intra=0 / bframes=3 / b_pyramid=2 / b_adapt=1 / b_bias=0 / direct=1 / weightb=1 / open_gop=0 / weightp=2 / keyint=90 / keyint_min=9 / scenecut=40 / intra_refresh=0 / rc_lookahead=40 / rc=crf / mbtree=1 / crf=22.0 / qcomp=0.60 / qpmin=0 / qpmax=69 / qpstep=4 / vbv_maxrate=600 / vbv_bufsize=6000 / crf_max=0.0 / nal_hrd=none / filler=0 / ip_ratio=1.40 / aq=1:1.00
Color range : Limited
Color primaries : BT.709
Transfer characteristics : BT.709
Matrix coefficients : BT.709

Audio
ID : 1
Format : AAC
Format/Info : Advanced Audio Codec
Format profile : LC
Codec ID : mp4a-40-2
Duration : 6 min 38 s
Bit rate mode : Constant
Bit rate : 160 kb/s
Channel(s) : 2 channels
Channel positions : Front: L R
Sampling rate : 44.1 kHz
Frame rate : 43.066 FPS (1024 SPF)
Compression mode : Lossy
Stream size : 7.60 MiB (49%)
Default : Yes
Alternate group : 1
Screenshots

A Cloud Guru - AWS Certified Solutions Architect Associate 2020

A Cloud Guru - AWS Certified Solutions Architect Associate 2020

A Cloud Guru - AWS Certified Solutions Architect Associate 2020

A Cloud Guru - AWS Certified Solutions Architect Associate 2020

A Cloud Guru - AWS Certified Solutions Architect Associate 2020

✅ Exclusive eLearning Videos ParRus-blogadd to bookmarks
Feel free to contact me PM
when links are dead or want any repost

A Cloud Guru - AWS Certified Solutions Architect Associate 2020