Subcategories

Backbone.JS In-Depth and Intro to Testing with Mocha and Sinon [repost]

Posted By: ParRus
Backbone.JS In-Depth and Intro to Testing with Mocha and Sinon [repost]

Backbone.JS In-Depth and Intro to Testing with Mocha and Sinon
WEBRip | English | MP4 + Project files | 1024 x 768 | AVC ~490 kbps | 29.970 fps
AAC | 127 Kbps | 44.1 KHz | 2 channels | 5h 19mn | 1.77 GB
Genre: Video Tutorial

Non-trivial web applications demand moving beyond jQuery one-offs into testable, single-responsibility code architectures. Sam shows us Backbone's lightweight approach to building client-side MVC applications and builds in unit tests with Mocha and Sinon.JS.
Content:

How We Got Here
Overview of The Comments Application
Backbone Models In-Depth
Backbone Views In-Depth
Backbone Collections and Routers In-Depth
Testing Backbone Applications

also You can watch my other last: Programming-posts

General
Complete name : 03. Defining Models.mp4
Format : MPEG-4
Format profile : Base Media / Version 2
Codec ID : mp42
File size : 43.1 MiB
Duration : 9mn 42s
Overall bit rate mode : Variable
Overall bit rate : 620 Kbps
Encoded date : UTC 2014-01-19 23:23:46
Tagged date : UTC 2014-01-19 23:25:08
Writing application : HandBrake 0.9.8 2012071700

Video
ID : 1
Format : AVC
Format/Info : Advanced Video Codec
Format profile : Baseline@L3.1
Format settings, CABAC : No
Format settings, ReFrames : 2 frames
Format settings, GOP : M=1, N=50
Codec ID : avc1
Codec ID/Info : Advanced Video Coding
Duration : 9mn 42s
Bit rate : 490 Kbps
Width : 1 024 pixels
Height : 768 pixels
Display aspect ratio : 4:3
Frame rate mode : Variable
Frame rate : 29.970 fps
Minimum frame rate : 14.985 fps
Maximum frame rate : 29.970 fps
Color space : YUV
Chroma subsampling : 4:2:0
Bit depth : 8 bits
Scan type : Progressive
Bits/(Pixel*Frame) : 0.021
Stream size : 34.0 MiB (79%)
Writing library : x264 core 120
Encoding settings : cabac=0 / ref=2 / deblock=1:0:0 / analyse=0x1:0x111 / me=umh / subme=6 / psy=1 / psy_rd=1.00:0.00 / mixed_ref=1 / me_range=16 / chroma_me=1 / trellis=0 / 8x8dct=0 / cqm=0 / deadzone=21,11 / fast_pskip=1 / chroma_qp_offset=-2 / threads=12 / sliced_threads=0 / nr=0 / decimate=1 / interlaced=0 / bluray_compat=0 / constrained_intra=0 / bframes=0 / weightp=0 / keyint=50 / keyint_min=26 / scenecut=40 / intra_refresh=0 / rc_lookahead=40 / rc=crf / mbtree=1 / crf=20.0 / qcomp=0.60 / qpmin=3 / qpmax=69 / qpstep=4 / ip_ratio=1.40 / aq=1:1.00
Encoded date : UTC 2014-01-19 23:23:46
Tagged date : UTC 2014-01-19 23:25:08
Color range : Limited
Color primaries : BT.709
Transfer characteristics : BT.709
Matrix coefficients : BT.709

Audio
ID : 2
Format : AAC
Format/Info : Advanced Audio Codec
Format profile : LC
Codec ID : 40
Duration : 9mn 42s
Bit rate mode : Variable
Bit rate : 127 Kbps
Maximum bit rate : 159 Kbps
Channel(s) : 2 channels
Channel positions : Front: L R
Sampling rate : 44.1 KHz
Compression mode : Lossy
Stream size : 8.83 MiB (20%)
Title : Stereo
Language : English
Encoded date : UTC 2014-01-19 23:23:46
Tagged date : UTC 2014-01-19 23:25:08
Screenshots

Backbone.JS In-Depth and Intro to Testing with Mocha and Sinon [repost]

Backbone.JS In-Depth and Intro to Testing with Mocha and Sinon [repost]

Backbone.JS In-Depth and Intro to Testing with Mocha and Sinon [repost]

Exclusive eLearning Videos ParRus-blogadd to bookmarks

Backbone.JS In-Depth and Intro to Testing with Mocha and Sinon [repost]