Tags
Language
Tags

The Basics of Modern Recording and Mixing (2 DVD set)

Posted By: ParRus
The Basics of Modern Recording and Mixing (2 DVD set)

The Basics of Modern Recording and Mixing (2 DVD set)
2xDVD5 | English | VIDEO_TS | 720 x 480 | MPEG2 ~4593 kbps | 29.970 fps
AC-3 448 Kbps 48.0 KHz | 2 channels | ~3 hours | 7.88 GB
Genre: eLearning Video / Sound Processing, Music Production

Learn how the best in the music biz make great recordings. This 2-DVD set leads you through the often mystifying details of setting up your studio recording and mixing. Find out how the best in the music biz make world-class records and learn how you can take advantage of decades of expert knowledge.
You don't need a lot of money to create professional recordings, but you do need the expertise. Secrets of the Pros will speed you through years of trial and error so you can focus on creating music instead of spending all your time trying to figure out the best way to make the gear work.

With over three hours of information, these DVDs will take you through standard methods of audio engineering that have been refined over decades by the best of the best.

If you were to closely observe the best producers and engineers in the audio world as they record, edit, and mix, you would see many of them using similar techniques. This is because almost every one of them learned their skills from a lineage of other top-notch talent in the audio production industry. This 2-DVD set will show you these techniques.

You will also hear a world-class studio designer show you easy and inexpensive ways to correctly set up your studio. This process is critical if you want to record and mix pro sounding tracks and have your mixes accurately translate from your studio to the outside world.

Topics

Mixing (techniques to vastly improve your mixes)
The Big Secret – Acoustics and how to set up a studio (this chapter features one of the world's top studio designers talking about cutting edge, inexpensive ways to set up your studio)
Pre-Amps (what they are and why they are extremely important)
Typical signal routing scenarios
Loops (how to work them into you into your music)

Professional standard techniques for:
– Recording vocals
– Recording drums
– Recording bass guitar
– Recording electric and acoustic guitar
– Keyboards, synths, and MIDI
– Recording bass guitar, and much more…

Features
Over 3 hours of information!
World-class endorsements
Easy to follow and inexpensive
Review at your own pac

also You can find my other last: Sound Processing-posts

General
Complete name : VTS_02_1.VOB
Format : MPEG-PS
File size : 668 MiB
Duration : 18 min 8 s
Overall bit rate mode : Variable
Overall bit rate : 5 143 kb/s

Video
ID : 224 (0xE0)
Format : MPEG Video
Format version : Version 2
Format profile : Main@Main
Format settings : CustomMatrix / BVOP
Format settings, BVOP : Yes
Format settings, Matrix : Custom
Format settings, GOP : M=3, N=15
Format settings, picture structure : Frame
Duration : 18 min 8 s
Bit rate mode : Variable
Bit rate : 4 593 kb/s
Maximum bit rate : 7 700 kb/s
Width : 720 pixels
Height : 480 pixels
Display aspect ratio : 4:3
Frame rate : 29.970 (30000/1001) FPS
Standard : NTSC
Color space : YUV
Chroma subsampling : 4:2:0
Bit depth : 8 bits
Scan type : Interlaced
Scan order : Bottom Field First
Compression mode : Lossy
Bits/(Pixel*Frame) : 0.443
Time code of first frame : 00:00:00;00
Time code source : Group of pictures header
GOP, Open/Closed : Closed
Stream size : 596 MiB (89%)
Color primaries : BT.601 NTSC
Transfer characteristics : BT.601
Matrix coefficients : BT.601

Audio
ID : 189 (0xBD)-128 (0x80)
Format : AC-3
Format/Info : Audio Coding 3
Muxing mode : DVD-Video
Duration : 18 min 8 s
Bit rate mode : Constant
Bit rate : 448 kb/s
Channel(s) : 2 channels
Channel positions : Front: L R
Sampling rate : 48.0 kHz
Frame rate : 31.250 FPS (1536 SPF)
Bit depth : 16 bits
Compression mode : Lossy
Stream size : 58.1 MiB (9%)
Service kind : Complete Main

Menu
Screenshots

The Basics of Modern Recording and Mixing (2 DVD set)

The Basics of Modern Recording and Mixing (2 DVD set)

The Basics of Modern Recording and Mixing (2 DVD set)

The Basics of Modern Recording and Mixing (2 DVD set)

The Basics of Modern Recording and Mixing (2 DVD set)

The Basics of Modern Recording and Mixing (2 DVD set)

Exclusive eLearning Videos ParRus-blogadd to bookmarks

The Basics of Modern Recording and Mixing (2 DVD set)