Subcategories

Steve Mauro - Beat The Market Maker [repost]

Posted By: ParRus
Steve Mauro - Beat The Market Maker [repost]

Steve Mauro - Beat The Market Maker
WEBRip | English | FLV + working files | 1280 x 720 | AVC ~449 kbps | 30 fps
AAC | 158 Kbps | 44.1 KHz | 2 channels | ~26 hours | 6.68 GB
Genre: eLearning Video / Investing, Trading, Stocks

Ready to learn what's REALLY going on in the markets? Trading Forex can enable you to take charge of your financial future, and earn consistent, sizeable profits. That is, if you know how to beat the market maker.
Friends, as I write this, gold hit all time highs, the stock market is in turmoil, and unemployment is running rampant throughout the country. What does this all mean to you as a trader? In short, absolutely nothing!

No matter how bad the pundits say the economy is, I bag my limit every time I trade. My wife and child are sheltered from turmoil in the markets… and the price of gas? Irrelevant in here!! Whether or not you realize it yet, we are all part of something bigger than ourselves. The knowledge that I share in my class is the key to financial stability in your lives and the lives of your children. Do not take this opportunity for granted. I promise you, if you get focused and roll up your sleeves, you will find it. If you ever had a chance at success as a trader it is through this doorway! I am extending my hand. Will you step through?

Value: $3997
More info: Salepage

and You can watch my other last: Business-posts

General
Complete name : Bootcamp1 Wk6 042912 Part1.flv
Format : MPEG-4
Format profile : Base Media
Codec ID : isom
File size : 251 MiB
Duration : 57mn 24s
Overall bit rate mode : Variable
Overall bit rate : 610 Kbps
Encoded date : UTC 2012-04-29 02:48:40
Tagged date : UTC 2012-04-30 02:49:00

Video
ID : 1
Format : AVC
Format/Info : Advanced Video Codec
Format profile : High@L3.1
Format settings, CABAC : Yes
Format settings, ReFrames : 4 frames
Format settings, GOP : M=5, N=90
Codec ID : avc1
Codec ID/Info : Advanced Video Coding
Duration : 57mn 24s
Bit rate : 449 Kbps
Maximum bit rate : 3 538 Kbps
Width : 1 280 pixels
Height : 720 pixels
Display aspect ratio : 16:9
Frame rate mode : Constant
Frame rate : 30.000 fps
Color space : YUV
Chroma subsampling : 4:2:0
Bit depth : 8 bits
Scan type : Progressive
Bits/(Pixel*Frame) : 0.016
Stream size : 184 MiB (74%)
Writing library : Vimeo Encoder
Encoded date : UTC 2012-04-29 02:48:40
Tagged date : UTC 2012-04-29 02:48:58

Audio
ID : 2
Format : AAC
Format/Info : Advanced Audio Codec
Format profile : LC
Codec ID : 40
Duration : 57mn 24s
Bit rate mode : Variable
Bit rate : 158 Kbps
Maximum bit rate : 251 Kbps
Channel(s) : 2 channels
Channel positions : Front: L R
Sampling rate : 44.1 KHz
Compression mode : Lossy
Stream size : 64.7 MiB (26%)
Encoded date : UTC 2012-04-29 02:48:49
Tagged date : UTC 2012-04-29 02:48:58

Screenshots

Steve Mauro - Beat The Market Maker [repost]

Steve Mauro - Beat The Market Maker [repost]

Steve Mauro - Beat The Market Maker [repost]

Steve Mauro - Beat The Market Maker [repost]

Steve Mauro - Beat The Market Maker [repost]

Steve Mauro - Beat The Market Maker [repost]

Steve Mauro - Beat The Market Maker [repost]

Exclusive eLearning Videos ParRus-blogadd to bookmarks

Steve Mauro - Beat The Market Maker [repost]