Tags
Language
Tags

Build Web Apps with Vue JS 3 & Firebase (Updated)

Posted By: ParRus
Build Web Apps with Vue JS 3 & Firebase (Updated)

Build Web Apps with Vue JS 3 & Firebase
WEBRip | English | MP4 | 1920 x 1080 | AVC ~4800 Kbps | 30 fps
AAC | 129 Kbps | 48.0 KHz | 2 channels | Subs: English (srt) | ~30 hours | 7.8 GB
Genre: eLearning Video / Development, Web Development, Vue JS

Learn Vue JS 3 & Firebase by creating & deploying dynamic web apps (including Authentication).
What you'll learn
Learn how to create Vue 3 applications from the ground-up
Get in-depth knowledge of Vue features like the Vue Router, Vue CLI, Options API, Composition API, Teleport etc
Get hands-on & in-depth experience using the latest Vue 3 features (such as the Composition API)
Learn how to use Firebase as a back-end to your Vue applications (as a database, authentication service, hosting etc)
Build & deploy 4 real-world web apps with Vue & Firebase
Learn how to implement an authentication system into your Vue js apps using Firebase Auth
Become a Vue 3 ninja!

Requirements
A basic understanding of HTML, CSS & JavaScript
ES6 Knowledge is advantageous
An appreciation of async JavaScript is a plus but not essential

Description
If you're looking to get started building full-stack applications with Vue 3 (or Vue 2) and Firebase, then look no further. In this course I'll take you from novice to ninja in Vue JS 3, starting out with the very basics and then moving on towards creating fully-fledged Vue applications.

We'll spend a whole chapter learning about the Vue Router - and how to create SPA's (single page applications) using it - as well as exploring how to use the Vue CLI to get up and running quickly when creating slightly larger Vue applications.

We'll also dive deep into the newest features Vue 3 has to offer, including a lot about the Composition API & Composable Functions.

I'll also teach you how to use Firebase - an online & free service provided by Google which will act as a feature-rich back-end to our Vue applications. We'll learn how to use Firebase to store and retrieve real-time data to and from a NoSQL database called Firestore, as well as authenticate our app's users with the Firebase Auth service, We'll also take a peak at Firebase Storage (which will enable us to allow users to upload images on our Vue sites), as well as deploying all of our applications to Firebase hosting.

Along the way we'll create several full projects, including a reaction timer, project tracker, a blog, a real-time chatroom & a music playlist website.

There's a crazy amount to cover, but by the end of this course you'll be in a position to create full-stack web applications (complete with user authentication) using Vue 3 and Firebase!

I'm also know as The Net Ninja on YouTube

…With around 600,000 subscribers and nearly 2000 free web development tutorials. So feel free to check out my teaching style and reviews before you buy my course :).

Who this course is for:
Anyone who wants to learn how to create websites with Vue 3 & Firebase
Anyone who wants to learn Vue and Firebase
Anyone who wants to learn about Authentication in Vue apps
Anyone who wants to learn Vue from the ground up
Anyone who wants to learn how to use Firebase in their applications

also You can find my other useful: Development-posts

General
Complete name : 047 Router Links.mp4
Format : MPEG-4
Format profile : Base Media
Codec ID : isom (isom/iso2/avc1/mp41)
File size : 81.8 MiB
Duration : 6 min 34 s
Overall bit rate : 1 740 kb/s
Writing application : Lavf58.76.100

Video
ID : 1
Format : AVC
Format/Info : Advanced Video Codec
Format profile : Main@L4
Format settings : CABAC / 4 Ref Frames
Format settings, CABAC : Yes
Format settings, RefFrames : 4 frames
Format settings, GOP : M=4, N=60
Codec ID : avc1
Codec ID/Info : Advanced Video Coding
Duration : 6 min 34 s
Bit rate : 1 603 kb/s
Nominal bit rate : 4 800 kb/s
Width : 1 920 pixels
Height : 1 080 pixels
Display aspect ratio : 16:9
Frame rate mode : Constant
Frame rate : 30.000 FPS
Color space : YUV
Chroma subsampling : 4:2:0
Bit depth : 8 bits
Scan type : Progressive
Bits/(Pixel*Frame) : 0.026
Stream size : 75.3 MiB (92%)
Writing library : x264 core 148
Encoding settings : cabac=1 / ref=3 / deblock=1:0:0 / analyse=0x1:0x111 / me=umh / subme=6 / psy=1 / psy_rd=1.00:0.00 / mixed_ref=1 / me_range=16 / chroma_me=1 / trellis=1 / 8x8dct=0 / cqm=0 / deadzone=21,11 / fast_pskip=1 / chroma_qp_offset=-2 / threads=24 / lookahead_threads=4 / sliced_threads=0 / nr=0 / decimate=1 / interlaced=0 / bluray_compat=0 / constrained_intra=0 / bframes=3 / b_pyramid=2 / b_adapt=1 / b_bias=0 / direct=1 / weightb=1 / open_gop=0 / weightp=2 / keyint=60 / keyint_min=6 / scenecut=0 / intra_refresh=0 / rc_lookahead=60 / rc=cbr / mbtree=1 / bitrate=4800 / ratetol=1.0 / qcomp=0.60 / qpmin=0 / qpmax=69 / qpstep=4 / vbv_maxrate=4800 / vbv_bufsize=9600 / nal_hrd=none / filler=0 / ip_ratio=1.40 / aq=1:1.00

Audio
ID : 2
Format : AAC
Format/Info : Advanced Audio Codec
Format profile : LC
Codec ID : mp4a-40-2
Duration : 6 min 34 s
Source duration : 6 min 34 s
Bit rate mode : Constant
Bit rate : 129 kb/s
Channel(s) : 2 channels
Channel positions : Front: L R
Sampling rate : 48.0 kHz
Frame rate : 46.875 FPS (1024 SPF)
Compression mode : Lossy
Stream size : 6.04 MiB (7%)
Source stream size : 6.04 MiB (7%)
Language : English
Default : Yes
Alternate group : 1
mdhd_Duration : 394197

Screenshots

Build Web Apps with Vue JS 3 & Firebase (Updated)

Build Web Apps with Vue JS 3 & Firebase (Updated)

Build Web Apps with Vue JS 3 & Firebase (Updated)

Build Web Apps with Vue JS 3 & Firebase (Updated)

Build Web Apps with Vue JS 3 & Firebase (Updated)

Exclusive eLearning Videos ParRus-blogadd to bookmarks

Build Web Apps with Vue JS 3 & Firebase (Updated)