Tags
Language
Tags
April 2024
Su Mo Tu We Th Fr Sa
31 1 2 3 4 5 6
7 8 9 10 11 12 13
14 15 16 17 18 19 20
21 22 23 24 25 26 27
28 29 30 1 2 3 4

Coursera - The Caltech-JPL Summer School on Big Data Analytics

Posted By: ParRus
Coursera - The Caltech-JPL Summer School on Big Data Analytics

Coursera - The Caltech-JPL Summer School on Big Data Analytics
WEBRip | English | MP4 + PDF Guides | 960 x 540 | AVC ~98.3 kbps | 29.970 fps
AAC | 128 Kbps | 44.1 KHz | 2 channels | Subs: English (.srt) | 18:43:52 | 2.02 GB
Genre: eLearning Video / Statistics & Data Analysis, Databases

This is an intensive, advanced summer school (in the sense used by scientists) in some of the methods of computational, data-intensive science. It covers a variety of topics from applied computer science and engineering, and statistics, and it requires a strong background in computing, statistics, and data-intensive research.
This is not a class as it is commonly understood; it is the set of materials from a summer school offered by Caltech and JPL, in the sense used by most scientists: an intensive period of learning of some advanced topics, not on an introductory level.

The school will cover a variety of topics, with a focus on practical computing applications in research: the skills needed for a computational ("big data") science, not computer science. The specific focus will be on applications in astrophysics, earth science (e.g., climate science) and other areas of space science, but with an emphasis on the general tools, methods, and skills that would apply across other domains as well. It is aimed at an audience of practicing researchers who already have a strong background in computation and data analysis. The lecturers include computational science and technology experts from Caltech and JPL.

also You can watch my other last: Coursera-posts

General
Complete name : 06_Classification-_overview_on_models_and_tools.mp4
Format : MPEG-4
Format profile : Base Media
Codec ID : isom
File size : 21.0 MiB
Duration : 12mn 29s
Overall bit rate : 235 Kbps
Writing application : Lavf55.19.104

Video
ID : 1
Format : AVC
Format/Info : Advanced Video Codec
Format profile : Main@L3.1
Format settings, CABAC : Yes
Format settings, ReFrames : 4 frames
Codec ID : avc1
Codec ID/Info : Advanced Video Coding
Duration : 12mn 29s
Bit rate : 98.3 Kbps
Width : 960 pixels
Height : 540 pixels
Display aspect ratio : 16:9
Frame rate mode : Constant
Frame rate : 29.970 fps
Color space : YUV
Chroma subsampling : 4:2:0
Bit depth : 8 bits
Scan type : Progressive
Bits/(Pixel*Frame) : 0.006
Stream size : 8.79 MiB (42%)
Writing library : x264 core 138
Encoding settings : cabac=1 / ref=3 / deblock=1:0:0 / analyse=0x1:0x111 / me=hex / subme=7 / psy=1 / psy_rd=1.00:0.00 / mixed_ref=1 / me_range=16 / chroma_me=1 / trellis=1 / 8x8dct=0 / cqm=0 / deadzone=21,11 / fast_pskip=1 / chroma_qp_offset=-2 / threads=12 / lookahead_threads=2 / sliced_threads=0 / nr=0 / decimate=1 / interlaced=0 / bluray_compat=0 / constrained_intra=0 / bframes=3 / b_pyramid=2 / b_adapt=1 / b_bias=0 / direct=1 / weightb=1 / open_gop=0 / weightp=2 / keyint=250 / keyint_min=25 / scenecut=40 / intra_refresh=0 / rc_lookahead=40 / rc=crf / mbtree=1 / crf=28.0 / qcomp=0.60 / qpmin=0 / qpmax=69 / qpstep=4 / ip_ratio=1.40 / aq=1:1.00
Language : English

Audio
ID : 2
Format : AAC
Format/Info : Advanced Audio Codec
Format profile : LC
Codec ID : 40
Duration : 12mn 29s
Bit rate mode : Constant
Bit rate : 128 Kbps
Channel(s) : 2 channels
Channel positions : Front: L R
Sampling rate : 44.1 KHz
Compression mode : Lossy
Stream size : 11.4 MiB (54%)
Language : English
Screenshots

Coursera - The Caltech-JPL Summer School on Big Data Analytics

Coursera - The Caltech-JPL Summer School on Big Data Analytics

Coursera - The Caltech-JPL Summer School on Big Data Analytics

Coursera - The Caltech-JPL Summer School on Big Data Analytics

Coursera - The Caltech-JPL Summer School on Big Data Analytics

Exclusive eLearning Videos ParRus-blogadd to bookmarks

Coursera - The Caltech-JPL Summer School on Big Data Analytics